This file was generated by Ched 2.7.0.0.
#TITLE ""
#ARTIST ""
#DESIGNER ""
#DIFFICULTY 0
#PLAYLEVEL
#SONGID ""
#WAVE ""
#WAVEOFFSET 0
#JACKET ""
#REQUEST "ticks_per_beat 480"
#00002: 4
#BPM01: 168
#00008: 01
#TIL00: ""
#HISPEED 00
#MEASUREHS 00
#00812:0000000000000014
#00810:0000000000000041
#00918:0000000000000014
#0121a:0000000000000014
#01314:0000000000000014
#01614:0000000000000014
#01718:0000000000000014
#02018:0000000000000014
#02114:0000000000000014
#02512:14
#0251f:11
#02612:14
#02718:14
#02818:14
#02914:14
#03014:14
#0311a:14
#0321a:14
#03212:0000000000000026
#0321f:0000000000000021
#03418:16
#03412:0016
#03612:16
#03618:0016
#04212:16
#04218:0016
#04418:16
#04412:0016
#04518:16
#04512:0016
#04712:16
#04718:0016
#05018:14
#05114:14
#05110:0041
#0521a:14
#05312:14
#05418:14
#05514:14
#0561a:14
#04018:0000000000000026
#01810:0000000000000041
#03310:0041
#04310:0041
#05910:0041
#0003a0:0000000000000014
#0013a0:0000000000000034
#0023a0:0000000000000034
#0033a0:0000000000000024
#004320:0000000000000014
#005320:0000000000000024
#006380:0000000000000014
#007380:0000000000000024
#010340:0000000000000014
#011340:0000000000000024
#014380:0000000000000014
#015380:0000000000000024
#018320:0000000000000014
#019320:0000000000000024
#0223a0:0000000000000014
#0233a0:0000000000000024
#032320:0000000000000016
#033320:0026
#035380:1626
#037320:1626
#038380:1626
#039320:1636
#040320:26
#040380:0000000000000016
#041380:0026
#043320:1626
#046380:1626
#048320:1600000036000026
#056320:0000000000000014
#057320:0000000000000024
#058380:0000000000000014
#059380:0000000000000024
#060340:0000000000000014
#061340:0000000000000024
#0633a0:1434003400340024
#064320:00140000
#068320:0024
