This file was generated by Ched 2.7.0.0.
#TITLE ""
#ARTIST ""
#DESIGNER ""
#DIFFICULTY 0
#PLAYLEVEL
#SONGID ""
#WAVE ""
#WAVEOFFSET 0
#JACKET ""
#REQUEST "ticks_per_beat 480"
#00002: 4
#BPM01: 168
#00008: 01
#TIL00: ""
#HISPEED 00
#MEASUREHS 00
#00118:00130000
#00119:0013
#0011a:00000013
#00116:0000003313000000
#00112:0033130000000013
#0021b:13
#0021a:00130000
#00219:0013
#00218:0000000000001313
#00216:0033130000000000
#00212:0000003313000000
#0041b:0013001300000000
#00412:0000130000000023
#00415:0000000013131300
#00418:00000000000000000013001300000000
#00512:0013000000000013
#00516:0000000013130000
#0051b:0000000000130000
#00616:0013000000130000
#00612:0000001313000000
#00617:0013
#0061b:0000000000001323
#0141b:0000130000001313
#01416:0013130000000013
#01412:0013
#01417:0013
#01512:0013000000130013
#01517:0000000000001313
#0151b:0000001300000000
#0161b:0013000000000013
#01616:0013000000000000
#01612:0000000013000023
#01615:0000000000130000
#01618:00000013
#02418:0000000000130013
#02417:00000013000000000000000000000000
#02412:0013
#02415:00000013
#0251b:23131313
#02512:1300000013001313
#02514:0013001300000000
#02516:00130000
#0251f:11
#0261b:13131313
#02615:0000000000000013
#02616:00000000001300000000000000000000
#02912:0000000013001313
#0291b:0013000000000000
#02918:00130000
#02915:0000001300000000
#0301b:00130000
#03016:0013130000000024
#03017:0013
#0331b:0013000000131300
#03317:0000130000000013
#03318:00000000000000130000000000000000
#03315:0013
#03316:00000013
#03312:0000130000000013
#03310:0041
#0351b:1300000013000013
#03516:1300000013000013
#03512:00130000
#03517:00130000
#03519:0013000000000000
#03514:0000001300000000
#03518:00000013
#03515:00000000000000000000001300000000
#03717:13
#03712:1313
#03715:0000000000130000
#03718:00000013
#0371b:0000130000000013
#03716:0000000000000013
#03815:00000000001300000000130000001300
#03818:0000131300001300
#0381b:0000000000130013
#03812:1313000013000000
#03917:00000013
#0391b:1300131300000000
#03912:1300000000131300
#03916:00000000001300000000000000000000
#04417:0000001300001300
#0441b:0000130013000013
#04416:0000000000000013
#04412:23232323
#05517:0013130000000013
#05512:0013130000000013
#0551b:0000000013130000
#05516:0000000013130000
#05712:0013130000000013
#05717:0000130000000013
#05716:0013
#0571b:0013
#0581b:0013130000000000
#05816:00130000
#05817:0000000013000013
#05812:0000000000000013
#0611b:0013130000000000
#06117:0000000013130000
#06116:0000000000000023
#06212:0013130000000000
#06216:0000000013130000
#00016:0000000000000013
#0001b:0000000000000023
#00316:00000013
#00314:0013
#00312:0000130000000023
#0031b:0033133300000023
#00317:0013
#0071b:0013000000000013
#00717:0000000013130000
#00712:0000000000130000
#00817:0013000000000000
#0081b:0000001300000023
#00818:0000000013130000
#00815:00000000000000000013000013000000
#00812:0000000000000013
#00810:0000000000000041
#0091b:00130000
#00918:0000001300000013
#00915:00001313
#00912:0000000000130000
#00916:00130000000000000000000000000000
#01012:0013000000000013
#01015:00130013
#01018:0000001300130000
#0101b:0013
#0111b:0013001300000013
#01112:0000000000130000
#01116:0000001300000013
#01212:00000013000000000000000000000000
#01217:00000013000000000000000000000000
#0121b:00000013
#01216:0000000000000013
#02012:00000013
#0201b:00000013000000000000000000000000
#02016:00000013000000000000000000000000
#02017:0000000000000013
#02116:0013000000000013
#02118:00130013
#02115:0000001300130000
#02117:0013
#02112:0013
#0211b:0000000000000013
#02217:0013130000000013
#02212:0000130000001323
#0221b:0013
#02216:0013
#02316:0000000000001313
#0231b:0013000000130023
#02312:0000002300000000
#01712:00130000
#01715:0000001300000013
#01718:00001313
#0171b:0000000000130000
#01717:00130000000000000000000000000000
#0181b:0013000000000013
#01818:00130013
#01815:0000001300130000
#01812:0013
#01810:0000000000000041
#01912:0013001300000013
#0191b:0000000000130000
#01917:0000001300000013
#02712:23131313
#0271b:1300000013001313
#02719:0013001300000000
#02717:00130000
#02812:1300130000240000
#02817:00000013000000000000000000001300
#02819:00000013
#02816:0024
#0281a:0000000000240000
#0341b:0013001300000000
#03416:00130000
#03412:0013
#03417:0013
#03612:0013001300000000
#03617:00130000
#0361b:0013
#03616:0013
#04116:0000000013000013
#04112:0033000000001300
#0411b:00232323
#04214:00130000
#04216:0000001300130000
#04212:0013000013000000
#0421b:23232323
#04317:00130013
#04319:0013001300130000
#0431b:1300000013000013
#04312:23232323
#04310:0041
#0461b:0013000000001300
#04618:0000130013130000
#04612:0000000000000013
#04616:00130000000000000000000013000000
#04617:0000000000000013
#04615:00000000000000000013000000000000
#0481b:0013
#04818:0000000000130000
#04815:00000013
#0481a:0000000000000014
#04812:0013130000000023
#04817:00130000000000000000000000000000
#04916:0000001400000013
#04912:0013130013130000
#05014:0013000000000000
#05012:0000001300000014
#05017:0000001300001313
#05016:0014
#05019:0013000000000000
#0501b:0013
#0511b:0013130013130000
#05117:0000000000000013
#05116:0000001400000000
#05112:0000000000343400
#05110:0041
#05217:0013000000000000
#05215:0000001300000000
#05218:00001314
#05212:0000000000130000
#05216:0000000000140023
#05214:00000013
#0521a:0000000000000014
#05219:00000000000000000000000000000014
#05312:0013130000000013
#05315:0000000013130000
#05318:14141414
#05319:00140014001400140014001400140014
#0531a:0014001400140014
#05415:0013000000000013
#05412:0000001313000000
#05418:14141414
#05419:00140014001400140014001400140000
#0541a:0014001400140000
#05617:0013
#05614:0000000000130000
#05619:00000013
#05616:0013000000000013
#05612:0000001300000000
#0561b:0013000000000013
#06012:0013130000001300
#06017:0000130000002323
#0601b:0000000023230000
#06016:0000000023230000
#04512:0000001300000013
#04517:0013000000000000
#0451b:0000000000130000
#0471b:0000001300000013
#04716:0013000000000000
#04712:0000000000130000
#01317:0013000000000013
#01315:00130013
#01318:0000001300130000
#01316:0013
#0131b:0013
#01312:0000000000000013
#03112:0000000000240014
#03116:0000002400000024
#0311a:0024000000000000
#03216:0014000024000000
#03212:0000000000240013
#03217:0000000000000023
#0321a:0000002400000000
#0321f:0000000000000021
#04017:0013000000130000
#04016:0000001300000013
#0401b:2300002300000023
#04012:0023000000230000
#0591b:0013130000000013
#05916:0000130000000013
#05917:0013
#05912:0013
#05910:0041
#0631b:2323000000230000
#06312:2323002300000023
#06317:0000002300000023
#06316:0000000000230000
#06415:0000000000000000003636000000000000000000000000000000000000000000
#0165b:0023000000000053
#01656:0023000000000000
#0375b:0000630000000023
#03752:53
#05752:0000130000000053
#05756:0053
#0575b:0053
#03257:0000000000000013
#03256:0024000000000000
#03252:0000000000000053
#00056:0000000000000063
#00156:0063
#00152:0000530000000053
#00256:00630000
#00258:0000000000000053
#00252:0053
#0035b:0000630000000013
#00357:0053
#00352:0000000000000013
#00452:0000000000000013
#00652:0053
#00656:0000000000230000
#0065b:0000000000000013
#01552:0023000000000053
#01557:0000000000000053
#0155b:0000006300000000
#0115b:0013006300000063
#01152:0000000000130000
#01156:0000000000000063
#00956:00230000000000000000000000000000
#00958:0000000000000053
#00852:0000000000000063
#01252:00000023000000000000000000000000
#01257:00000023000000000000000000000000
#01256:0000000000000063
#02252:0000130000000053
#0225b:0013
#02257:0000000000000013
#02457:00000023000000000000000000000000
#01952:0013005300000053
#0195b:0000000000130000
#01957:0000000000000053
#01757:00230000000000000000000000000000
#01755:0000000000000053
#0205b:00000023000000000000000000000000
#02056:00000023000000000000000000000000
#02057:0000000000000053
#02656:00000000002300000000000000000000
#02552:0000000000000053
#02857:00000023000000000000000000001300
#0275b:0000000000000063
#03052:0013
#0305b:00130000
#03056:00530000
#03452:0053
#03457:0053
#03352:0000000000000053
#0355b:0000000000000063
#0365b:0063
#03656:0063
#03952:23000053
#0395b:1300006300000000
#04256:0000000000230000
#04252:0063
#0405b:0000000000000013
#04056:0000001300000053
#04057:0013000000130000
#0445b:0013
#04456:0000000000000053
#04956:0000002400000000
#0485a:0000000000000064
#04852:0000530000000013
#04857:00230000000000000000000000000000
#05656:0013000000000013
#0565b:0000000000000053
#05652:0000001300000000
#05654:0000000000130000
#05557:0000000000000013
#05856:00630000
#05852:0000000013000063
#05857:0000000013000013
#06352:0013001300000013
#0635b:0013000000130000
#0525a:0000000000000024
#05259:00000000000000000000000000000064
#05252:0014000000000000
#05256:0000000000000013
#05358:24242424
#05359:00640064006400640064006400640064
#0535a:0024002400240024
#05458:24242424
#05459:00640064006400640064006400640000
#0545a:0024002400240000
#05056:0064
#05052:0000000000000054
#04656:00230000000000000000000000000000
#04657:0000000000000053
#04552:0000005300000063
#04557:0053000000000000
#0455b:0000000000530000
#0475b:0000005300000053
#04756:0053000000000000
#04752:0000000000530000
#02156:0000000000000063
#01052:0000000000000053
#0145b:0000130000000063
#01452:0013
#01357:0000000000000053
#0235b:0023000000000053
#02357:0000001300000000
#02356:0000000000000013
#02352:0000005300000000
#03152:0000000000000064
#06157:0000000000130000
#06256:0000000000130000
#0185b:0000000000000053
#02952:0000000013000013
#0435b:0000000000000053
#0595b:0000130000000063
#05957:0063
#05952:0063
#05156:0000002400000000
#000360:0000000000000013
#001320:0033330000000033
#001360:0000003333000000
#002360:0033330000000000
#002320:0000003333000000
#002350:0000000000000023
#002381:0000000000000013
#0033b1:0033333300002300
#003371:0033
#0043b1:0000000000000013
#005371:0023000000000000
#005371:00130000
#0053b1:0023
#005371:0000000000000013
#0063b1:0033000000000000
#006371:0000002300000000
#006321:00001323
#006361:0000000000530000
#006321:0000000000000013
#007361:0023000000000000
#007361:00130000
#007321:0023
#007361:0000000000000013
#008321:0033000000000000
#008361:0000002300000000
#008321:0000000000000013
#009361:00530000000000000000000000000000
#009321:00230000
#009381:0000000000000013
#0103b1:0023000000000000
#010321:0000000000000013
#011361:0023000000000000
#0113b1:0000001300000000
#011371:0000000000230000
#0113b1:0000000000000013
#012371:00000053000000000000000000000000
#0123b1:0023
#011360:0000000000000013
#012320:00000053000000000000000000000000
#012360:0023
#012360:0000000000000013
#013320:0023000000000000
#013370:0000000000000013
#0143b0:0023000000000000
#0143b0:0000000000000013
#015370:0023000000000000
#015321:0013000000000000
#015361:0000002300000000
#0153b0:0000001300000000
#015370:0000000000230000
#015370:0000000000000013
#0163b0:0053000000000000
#016370:0000002300000000
#015321:0000000000000013
#016361:0053000000000000
#016321:0000002300000000
#0163b1:0000000000000013
#017371:00530000000000000000000000000000
#0173b1:00230000
#017351:0000000000000013
#018321:0023000000000000
#0183b1:0000000000000013
#019371:0023000000000000
#019321:0000001300000000
#019361:0000000000230000
#019321:0000000000000013
#020361:00000053000000000000000000000000
#020321:0023
#019370:0000000000000013
#0203b0:00000053000000000000000000000000
#020370:0023
#020370:0000000000000013
#0213b0:0023000000000000
#021360:0000000000000013
#022320:0023000000000000
#022320:0000000000000013
#023360:0023000000000000
#0233b1:0013000000000000
#023371:0000002300000000
#023320:0000001300000000
#023360:0000000000230000
#0233b0:0000000000000013
#024370:00000053000000000000000000000000
#0243b0:0023
#025320:0000000000000013
#026360:00000000005300000000000000000000
#026320:00000023
#0273b0:0000000000000013
#028370:00000053000000000000000000000000
#0283b0:0023
#028320:0000000000000013
#029360:0023000000000000
#0293b0:0013
#029370:00000023
#029370:0000000000000013
#0303b0:0023000000000000
#030360:00130000
#030320:0023
#030320:0000000000000014
#031360:5424000000000000
#0313a0:0000001400000000
#031360:0000000054240000
#031320:0000000000000014
#032360:0054000000000000
#032320:0000002400000000
#032320:0000000000000013
#033360:0023000000000000
#033320:0000000000000013
#034360:0023000000000000
#034370:0013
#0343b0:00000023
#034321:0013
#034361:00000023
#0353b1:0000000000000013
#036371:0023000000000000
#036361:0013
#036321:00000023
#0363b0:0013
#036370:00000023
#037320:13
#037360:00230000
#0373b1:00130000
#037371:0023
#0373b1:0000000000000013
#038371:0023000000000000
#039321:13
#039361:00230000
#0393b1:0000001300000000
#039371:0000000000230000
#039321:00000013
#040361:23
#040361:0000000000000013
#041321:0033230000000000
#042321:00001323
#042361:0000000000530000
#0433b1:0000000000000013
#044371:0023000000000000
#044361:0000000000000013
#045321:0023000000000000
#045370:0013000000000000
#0453b0:0000002300000000
#045321:0000001300000000
#045361:0000000000230000
#0453b0:0000000000130000
#045370:0000000000000023
#045321:0000000000000013
#046361:00530000000000000000000000000000
#046321:00230000
#046371:0000000000000013
#0473b1:0023000000000000
#047360:0013000000000000
#047320:0000002300000000
#0473b1:0000001300000000
#047371:0000000000230000
#047320:0000000000130000
#047360:0000000000000023
#0473b1:0000000000000013
#048371:00530000000000000000000000000000
#0483b1:00230000
#048320:00130000
#048360:0023
#0483a0:0000000000000014
#049360:0000005400000000
#0493a0:0000000000000024
#050360:0014
#050320:0000000000003434
#051360:0000003400000000
#051320:0000000000343434
#052320:0024000000000000
#0523a0:0000000000000014
#052390:00000000000000000000000000000054
#053380:54545454
#053390:00540054005400540054005400540054
#0533a0:0054005400540054
#054380:54545454
#054390:00540054005400540054005400540000
#0543a0:0054005400540024
#0563b0:0000000000000013
#057370:0023000000000000
#057360:0013
#057320:00000023
#0573b1:0013
#057371:00000023
#057321:0000000000000013
#058361:0023000000000000
#058361:00130000
#058321:0023
#058321:0000000000000013
#059361:0023000000000000
#059371:0013
#0593b1:00000023
#059320:0013
#059360:00000023
#0593b0:0000000000000013
#060370:0023000000000000
#060320:0000000000000013
#061360:0033330000000000
#061320:0000000033230000
#0613b0:0000000000000013
#062370:0033330000000000
#0623b0:0000000033230000
#064350:0000000000000000163636000000000000000000000000000000000000000000
#068370:0022
