This file was generated by Ched 2.7.0.0.
#TITLE ""
#ARTIST ""
#DESIGNER ""
#DIFFICULTY 0
#PLAYLEVEL
#SONGID ""
#WAVE ""
#WAVEOFFSET 0
#JACKET ""
#REQUEST "ticks_per_beat 480"
#00002: 4
#BPM01: 168
#00008: 01
#TIL00: ""
#HISPEED 00
#MEASUREHS 00
#00118:00130013
#00115:0013
#0021b:13
#00215:00130013
#00218:0013
#00212:13
#00315:00130013
#00318:0013
#00312:0000000000000023
#0031b:0000000000000023
#00418:0013001300130000
#00415:00131313
#00618:0013000000000000
#00612:0013000000000000
#00615:0000001300000000
#0091b:0013
#00915:0000000000130000
#00918:00000013
#00912:0000000000000013
#01117:0000000000000013
#01112:0000000000000013
#01218:0000000000001313
#01312:0013000000000013
#01318:00130013
#01315:0000001300130000
#0131b:0013
#01418:0016000016000000
#01412:00160013
#0241b:00000013000000000000000000001300
#02415:00000013000000000000000000000000
#02918:0013001300000013
#02915:00131300
#03015:00130000
#03012:0013
#0301b:0000000013000013
#03318:0000000000130000
#03315:0033000000001300
#0331b:0013
#03310:0041
#03415:00131300
#03418:0000001300000000
#0341b:0013
#03512:13
#0351b:00130000
#03515:0013000013000000
#03518:0000001300000000
#03918:13000013
#03915:0000001300000000
#04115:0000001300000000
#04118:0000000000130000
#04112:00230023
#0411b:0023
#04218:00131300
#04215:0000001300130000
#0421b:0000000000130000
#04212:0013
#04418:0000001300001300
#04415:0000130000000013
#04412:0013
#0441b:0013
#04818:0000000000130000
#04812:0013130000000013
#0481b:0013130013000000
#04815:00000013
#05412:0000000000000013
#0541b:0000000000000013
#05518:0013130000000016
#05515:0000000013130000
#05612:0016000000160000
#05618:0000001600000000
#0561b:0000000000000013
#05615:0000000000000013
#06415:00160000
#00818:0000001300000013
#00815:0013000000000000
#0081b:0013000000000000
#00810:0000000000000041
#00518:0000130000130000
#00515:0000000013000013
#0051b:0000000000000013
#01018:0013
#01015:0033000000130000
#0101b:00000013
#0151b:0000000000000013
#01518:00000013
#01515:0000000000000013
#01618:0013000000000000
#01615:0000000000000013
#01612:0013000000000000
#02212:0016000016000000
#02218:00160000
#0221b:00000013
#02215:0000000000000023
#03618:00131300
#03615:0000001300000000
#03612:0013
#03712:1313
#03715:0000130000130000
#03718:13000013
#0371b:00130000
#03818:00000013
#03815:0000000000000013
#0401b:0000000000000013
#04012:0026000000260000
#04018:2600002600000000
#04318:0000001300000000
#04315:0013000000130000
#0431b:00230023
#04312:2323
#04310:0041
#05712:0013000000000013
#05718:00130000
#05715:0013
#0571b:0000000000130013
#05818:0013000000000013
#05815:00130000
#05812:0000000013000013
#0581b:0013
#0591b:0013000000000013
#05915:00130000
#05918:0013
#05912:0000000000130013
#05910:0041
#06015:0013000000002300
#06018:0000130000230000
#0601b:0023
#06012:0000000000000023
#06115:0013130000000000
#0611b:0013130000000023
#06118:0013
#06112:0000000000130000
#06218:0013130000000000
#06212:0013130000000000
#06215:0013
#0621b:0000000000130000
#00715:0000130000130000
#00718:0000000013000013
#00712:0000000000000013
#01712:0013
#01718:0000000000130000
#01715:00000013
#0171b:0000000000000013
#01916:0000000000000013
#0191b:0000000000000013
#02015:0000000000001313
#0211b:0013000000000013
#02115:00130013
#02118:0000001300130000
#02112:0013
#01815:0013
#01818:0033000000130000
#01812:00000013
#01810:0000000000000041
#02315:00000013
#02318:0000002300000013
#02312:0000000000000023
#02518:0013001300000013
#02512:00130000
#02515:23001313
#0251b:0000000000130000
#0251f:11
#0261b:00000013000000000000000000000000
#02615:0000000000000013
#02712:0013000000000000
#0271b:00130000
#02715:0000001300000013
#02718:2313
#02812:0013000000001313
#0281b:0000000000001313
#03112:0000001300000013
#0311b:0000000000000013
#04512:0013000000130000
#04515:0000001300000013
#04612:00000013000000000000000000000000
#04615:00000013
#04618:0000000000000013
#0471b:0013000000130000
#04718:0000001300000000
#05212:0000000000000013
#05316:00000013
#05118:0000000000000013
#05110:0041
#0501b:0000000000000013
#03212:0000000000240023
#0321a:0000002400000000
#03216:0024
#0321f:0000000000000021
#06318:0026000000260000
#06312:2600002600000026
#01157:0000000000000063
#01152:0013000000000063
#01158:0000000000130000
#01452:00160000
#01458:0016
#0425b:0000000000230000
#04258:0063
#04255:0000000000230000
#04252:0063
#04852:0000000000000053
#05652:0016000000160000
#05658:0000001600000000
#05558:0000000000000016
#06352:0000001600000016
#06358:0016000000160000
#06455:00560000
#00858:0000000000000053
#00952:0000000000000063
#0155b:0000000000000053
#01555:0000000000000053
#01658:0023000000000000
#01655:0000000000000063
#01652:0023000000000000
#02258:00160000
#02252:0016
#03252:0000000000000063
#03455:0063
#0345b:0063
#03555:0063
#03658:0053
#03652:0053
#03958:53
#03955:0000006300000000
#0405b:0000000000000053
#04452:0013
#0445b:0013
#04455:0000000000000053
#05852:0013
#0585b:0013
#06152:0000000000130000
#0625b:0000000000130000
#01956:0000000000000053
#0195b:0013000000000053
#01955:0000000000130000
#0175b:0000000000000053
#02455:00000023000000000000000000000000
#0245b:00000023000000000000000000000000
#02358:0000000000000063
#02352:0000000000000053
#02558:0000000000000053
#0265b:00000023000000000000000000000000
#02852:0023000000000000
#02755:0000000000000053
#02758:0053
#02955:0053
#02958:0000000000000053
#0315b:0000000000000053
#03152:0000005300000053
#0305b:0000000000000053
#04552:0053000000530000
#04555:0000005300000053
#04652:00000023000000000000000000000000
#04658:0000000000000053
#0475b:0053000000530000
#04758:0000005300000000
#05252:0000000000000053
#0525b:0013000000000000
#0505b:0000000000000053
#05158:0000000000000053
#05356:00000023
#000350:0000000000000013
#001350:0023000000000000
#002380:0000000000000013
#003380:0023000000000000
#0043b0:0000000000000013
#005380:0023000000000000
#006380:00001323
#006320:0000000000000013
#007350:0023000000000000
#008350:00001323
#008380:0000000000000013
#0093b0:00230000
#009320:0000000000000013
#010350:0033230000000000
#010320:0000000000000013
#011320:0023000000000000
#011380:0000001300230000
#011320:0000000000000013
#012360:0023
#011371:0000000000000013
#0123b1:0023
#014381:0000000000000013
#015381:0023000000000000
#015351:0000001300230000
#0153b1:0000000000000013
#016381:0053000000000000
#0163b1:0000002300000000
#015350:0000000000000013
#016320:0053000000000000
#016350:0000002300000000
#016350:0000000000000013
#017320:00230000
#0173b0:0000000000000013
#018380:0033230000000000
#0183b0:0000000000000013
#0193b0:0023000000000000
#019350:0000001300230000
#0193b0:0000000000000013
#020370:0023
#019361:0000000000000013
#020321:0023
#022351:0000000000000013
#023351:0023000000000000
#023381:0000001300230000
#023321:0000000000000013
#024351:00000053000000000000000000000000
#024321:0023
#023380:0000000000000013
#0243b0:00000053000000000000000000000000
#024380:0023
#025380:0000000000000013
#0263b0:00000053000000000000000000000000
#026380:0023
#027380:0013
#0273b0:00000023
#027350:0000000000000013
#028320:0053000000000000
#028350:0000002300000000
#029350:0013
#029320:00000023
#029380:0000000000000013
#0303b0:0023000000000000
#0303b0:0000000000000013
#031380:0023000000000000
#030351:0000000000000013
#031351:0023000000000000
#031321:0000001300000000
#031351:0000000000230000
#031380:0000001300230000
#031320:0000000000000013
#032350:0023000000000000
#0313b1:0000000000000013
#032381:0023000000000000
#032321:0000000000000013
#033351:0033230000000000
#033321:0000000000000013
#034321:0023000000000000
#034351:0013
#034321:00000023
#0343b0:0013
#034380:00000023
#035350:0013
#035320:00000023
#0353b0:0000000000000013
#0363b0:0023000000000000
#036380:0013
#0363b0:00000023
#036321:0013
#036351:00000023
#037351:0000000000000013
#038351:0023000000000000
#0373b0:0000000000000013
#0383b0:0023000000000000
#038380:0000001300230000
#038321:0000001300230000
#039381:13
#0393b1:00230000
#039351:0000001300000000
#039321:0000000000230000
#0403b1:0000000000000013
#041381:0023000000000000
#041351:0000000000000013
#042351:0023000000000000
#042381:00001323
#0423b1:0000000000530000
#042320:00001323
#042350:0000000000530000
#043380:0000000000000013
#044380:0023000000000000
#044350:0000000000000013
#045320:0033000000330000
#045350:0000003300000033
#046320:00000053000000000000000000000000
#046350:0023
#046380:0000000000000013
#0473b0:0033000000330000
#047380:0000003300000023
#048320:0000000000000013
#049350:0000000000000023
#0503b0:0000000013003333
#051380:0000003300333333
#0523b0:0023000000000000
#052320:0000000000133333
#053360:00000053
#054320:0000000000230000
#064350:00160000
#068370:0022
