This file was generated by Ched 2.7.0.0.
#TITLE ""
#ARTIST ""
#DESIGNER ""
#DIFFICULTY 0
#PLAYLEVEL
#SONGID ""
#WAVE ""
#WAVEOFFSET 0
#JACKET ""
#REQUEST "ticks_per_beat 480"
#00002: 4
#BPM01: 168
#00008: 01
#TIL00: ""
#HISPEED 00
#MEASUREHS 00
#00418:0013000000130000
#00414:00130000
#0041a:0000001300000000
#00415:00001300000000000013001300000000
#00419:00130000
#00413:0000001300000000
#0041b:0000000013001313
#00412:00001313
#00416:0000000000000023
#00512:0013130013001300
#0051b:0000000013001313
#00516:00130000000000000000130000000000
#00517:0000001300000000
#00612:1313130013131313
#00616:0013001300000000
#0061b:0013
#00617:0000000000130023
#00912:0000130000000013
#00918:0000001300000000
#0091b:0000000013130000
#00919:00000013
#00914:00000013
#00915:00000000000000130000000000000000
#00917:0000000000000013
#00916:00130000000000000000130000000000
#01014:0000001300000000
#01012:00130013
#0101b:0013000013000013
#01019:0000000000130000
#01017:00130013
#01016:1300000013000013
#01412:0013000013001300
#0141b:0000130000000013
#01416:0000130000000013
#01417:00001313
#03312:00001300000000130000000013000000
#0331b:1300130000130013
#03316:1300130000000013
#03319:0000001300000000
#03317:00001313
#03310:0041
#0351b:13000000130000001300001300000000
#03512:1300130013001313
#03517:0000001300001313
#03516:0013000000130000
#03716:0000000013000013
#0371b:0013
#03714:0000000000130000
#03712:00000013
#03717:00000013
#03719:0000000000130000
#03916:1313
#03917:0013001300000000
#0391b:13000000001300000000130013000000
#03912:0000131300001300
#0441b:13130013
#04417:0013000013000013
#04412:2300000023000013
#04419:0000001300000000
#04416:00230023
#04616:0013000000000013
#04612:0000130000131300
#0461b:00000000130000130000000000001300
#04618:00000000000013000013000000000000
#04615:00000000000000001300001300000000
#06412:00000000000000001c3c3c000000000000000000000000000000000000000000
#02414:0000130000000012
#02416:0013000000001300
#02412:0000001300000000
#02415:0013
#02418:00000000000000130000130000000000
#0241b:0013000000001300
#02514:0012001200000000
#02516:0000120000000012
#02512:2212
#0251f:11
#01212:0013000000000013
#0121b:0000130000131300
#01217:0000000013000013
#01216:00000000130000000000001300000000
#01316:0013000000000013
#01312:00131313
#01315:0000001300000000
#0131b:0000000013000013
#01319:0000000000130000
#01317:00130013
#01318:00000000000000130000000000000000
#02917:0013000000000000
#02914:00130000
#0291b:0000001313001313
#02916:1300001300000000
#02912:00000000000000000013000013001300
#02918:0000000000130000
#02915:00000000000000000000001300000000
#02919:00130000
#03012:00131313
#0301b:00000000000000000013000013000000
#03015:0000000000130000
#03018:00000000000000000000001300000000
#03017:1300130000000023
#03016:0013000000000000
#03416:0013000013000000
#03417:1300130000130000
#03414:0000001300000013
#03412:1300130000130000
#03419:0000001300000000
#0341b:00001313
#04012:1323000000231326
#04015:0016001600160000
#0401b:2300002300001313
#03812:1300000000130013
#0381b:0000130000131300
#03816:00000013
#03817:0013000000000013
#03815:00000000001300001300000000000000
#03818:0000001300000000
#05717:00131300
#0571b:0000000000130013
#05712:00000013
#05716:0000000000000013
#06117:1300000000130023
#06112:0013001300130013
#0611b:00131300
#06116:00130000
#0011b:0013130013001300
#00114:0000001300000000
#00116:00130000
#00212:0000130000000013
#00214:0000001300000000
#0021b:13131313
#04512:00001300000000130000130000000000
#04518:0000001300000000
#0451b:1313
#04516:00131313
#04517:0000000000130013
#04917:0013130000000013
#04919:0000000000130000
#04912:0000130013000013
#0491b:0000001300001300
#04914:0000000000130000
#04916:00000013
#0601b:0000130000000013
#06012:0000000024241300
#0601a:0000000024240000
#06017:00000023
#06016:0000000000000023
#00312:0013130013001323
#00319:0000001300000000
#00317:00130000
#0031b:0000000000000023
#0071b:0013130013001300
#00712:0000000013001313
#00717:00130000000000000000130000000000
#00716:0000001300000000
#0081b:1313130013001313
#00817:0013001300000000
#00812:00001313
#00818:00000000000000000013000000000000
#00815:0000000000130000
#00816:0000000000000023
#00810:0000000000000041
#01112:0013131300000000
#01117:1300131300000000
#0111b:0000000000131313
#01116:0000000013001313
#0161b:0000001313000000
#01616:0013
#01614:0000000000130000
#01612:0013000000001313
#01617:0013000000001323
#01619:00130000
#0221b:0013000013001300
#02212:0000130000000023
#02217:0000130000000013
#02216:00001313
#02314:00130013
#02312:0000002300000013
#0231b:0013000000130000
#02319:00000013
#02317:0000000000000023
#0201b:0013000000000013
#02016:0000000013000013
#02012:0000130000131300
#02017:00000000130000000000001300000000
#02117:0013000000000013
#0211b:00131313
#02118:0000001300000000
#02112:0000000013000013
#02114:0000000000130000
#02116:00130013
#02115:00000000000000130000000000000000
#02616:0000000000000012
#02612:00000000001200000000000000000000
#0271a:0012001200000012
#02718:00120000
#0271c:2212
#0281b:0000000000001313
#02812:0000000026261313
#02818:1200000000260000
#0281c:00120000
#03116:00130000000023000000000013000000
#03112:0000130013230023
#03117:00000000130000000013000000000000
#0311b:1323000000001323
#03617:0013000013000000
#03616:1300130000130000
#03619:0000001300000000
#0361b:1300130000130013
#03614:0000001300000000
#03612:00001313
#04116:0013000013000013
#04112:00130013
#04114:0000001300130000
#04117:13230023
#0411b:0023
#04214:00130000
#04212:1300001300000000
#04216:0013000013000000
#0421b:2323
#04217:00230023
#04317:1300000013000013
#04319:0013001300130000
#0431b:00130013
#04312:2323
#04316:00230023
#04310:0041
#04817:0013170000000000
#04812:00130000
#04816:0000000000000013
#0481b:0000000000000023
#04717:00131313
#0471b:00001300000000130000130000000000
#04716:0000000000130013
#04712:1313
#04715:0000001300000000
#05017:0013001300000013
#05012:0000001300001313
#0501b:00131300
#05016:13131300
#05116:0013130000000013
#05114:0000000000130000
#0511b:0000130013000013
#05112:0000001300001300
#05119:0000000000130000
#05117:00000013
#05110:0041
#0521b:0000001300001313
#05212:00131313
#05217:13131300
#05216:0013001300000023
#05215:0000000000130000
#05218:00000000000000000000001300000000
#05412:0000001300000013
#0541b:0013130013001300
#05416:0013130013000000
#05414:13
#05417:0000001300000013
#06315:00000000130000000013000013000000
#06318:16002600001300001300260000132600
#06312:2616002600000026
#05617:0000000013000013
#05612:0013000013000013
#05618:00130000130000000000000000000000
#0561b:0000001300001300
#05615:13000000001300000000000000000000
#05614:0000000000130000
#05616:00000013
#05812:00130013
#05816:0000000000000013
#0581b:0000000013000013
#05817:0000000000130000
#05912:0000000000130013
#0591b:00000013
#05916:00131300
#05917:0000000000000013
#05910:0041
#06216:1300000000130000
#0621b:0013001300130000
#06212:00131300
#06217:00130000
#0531b:00130013
#05312:0013000013000013
#05316:00130013
#05314:0000001300130000
#05317:0000000013000013
#05512:0000130000001313
#0551b:0013000013000013
#05517:00130013
#05519:0000001300130000
#05516:0013
#03217:001300000000000000000000000000000000000000000000000000000000000000000000000000000000000000000000000000000000000000000000000000000000000000000000000000000000000000000000000000000000000000000000000000000000000000000000000000000000000000000000000000000000000000000000000000000000000000000000000000000000000000000000000000000000000000000000000000000000000000000000000000000000000000000000000000000000000000000000000000000000000000000000000000000000000000000000000000000000000000000000000000000000000000000000000000000000000000000000000000000000000000000000000000000000000000000000000000000000000000000000000000000000000000000000000000000000000000000000000000000000000000000000000000000000000000000000000000000000000000000000000000000000000000000000000000000000000000000000000000000000000000000000000000000000000000000000000000000000000000000000000000000000000000000000000000000000000000000000000000000000000000000000000000000000000000000000000000000000000000000000000000000000000000000000000000000000000000000000000000000000000000000000000000000000000000000000000000000000000000000000000000000000000000000000000000000000000000000000000000000000000000000000000000000000000000000000000000000000000000000000000000000000000000000000000000000000000000000000000000000000000000000000000000000000000000000000000000000000000000000000000000000000000000000000000000000000000000000000000000000000000000000000000000000000000000000000000000000000000000000000000000000000000000000000000000000000000000000000000000000000000000000000000000000000000000000000000000000000000000000000000000000000000000000000000000000000000000000000000000000000000000000000000000000000000000000000000000000000000000000000000000000000000000000000000000000000000000000000000000000000000000000000000000000000000000000000000000000000000000000000000000000000000000000000000000000000000000000000000000000000000000000000000000000000000000000000000000000000000000000000220000000000000000000000000000000000000000000000000000000000000000000000000000000000000000000000000000000000000000000000000000000000000000000000000000000000000000000000000000000000000000000000000000000000000000000000000000000000000000000000000000000000000000000000000000000000000000000000000000000000000000000000000000000000000000000000000000000000000000000000000000000000000000000000000000000000000000000000000000000000000000000000000000000000000000000000000000000000000000000000000000000000000000000000000000000000000000000000000000000000000000000000000000000000000000000000000000000000000000000000000000000000000000000000000000000000000000000000000000000000000000000000000000000000000000000000000000000000000000000000000000000000000000000000000000000000000000000000000000000000000000000000000000000000000000000000000000000000000000000000000000000000000000000000000000000000000000000000000000000000000000000000000000000000000000000000000000000000000000000000000000000000000000000000000000000000000000000000000000000000000000000000000000000000000000000000000000000000000000000000000000000000000000000000000000000000000000000000000000000000000000000000000000000000000000000000000000000000000000000000000000000000000000000000000000000000000000000000000000000000000000000000000000000000000000000000000000000000000000000000000000000000000000000000000000000000000000000000000000000000000000000000000000000000000000000000000000000000000000000000130000000000000000000000000000000000000000000000000000000000000000000000000000000000000000000000000000000000000000000000000000000000000000000000000000000000000000000000000000000000000000000000000000000000000000000000000000000000000000000000000000000000000000000000000000000000000000000000000000000000000000000000000000000000000000000000000000000000000000000000000000000000000000000000000000000000000000000000000000000000000000000000000000000000000000000000000000000000000000000000
#03216:1300000000220000
#03212:0000230000000023
#0321b:00230000
#03218:0000002200000000
#0321f:0000000000000021
#01519:00130013
#0151b:0000001300000013
#01512:0013000000130000
#01514:00000013
#01516:0000000000000013
#0171b:0000130000000013
#01715:0000001300000000
#01712:0000000013130000
#01714:00000013
#01719:00000013
#01718:00000000000000130000000000000000
#01716:0000000000000013
#01717:00130000000000000000130000000000
#01819:0000001300000000
#0181b:00130013
#01812:0013000013000013
#01814:0000000000130000
#01816:00130013
#01817:1300000013000013
#01810:0000000000000041
#0191b:0013131300000000
#01916:1300131300000000
#01912:0000000000131313
#01917:0000000013001313
#0001b:0000000000000023
#0395b:53
#03957:0023000000000000
#03956:1323
#03952:0000006300000000
#06452:005c0000
#00552:00130013
#00556:00230000000000000000000000000000
#0055b:0000000000000063
#00652:0000130000001353
#0065b:0063
#00657:0000000000230013
#00656:0053000000000000
#05757:00635300
#05752:0013
#0575b:0000000000230013
#05756:0000000000000063
#06157:2300000000130013
#06152:0000002300130053
#06156:00630000
#04055:0046003600460000
#04052:0000000000000036
#0405b:0000000000000053
#04552:0063000000630000
#0455b:23
#04556:00230023
#04557:0000000000000053
#04457:0000000013000063
#04452:0000000000000013
#0605b:0000000000000063
#06056:0000000000000013
#0075b:00130013
#00757:00230000000000000000000000000000
#00752:0000000000000053
#0085b:0000130000000063
#00856:0000000000000013
#00857:0063000000000000
#00957:0000000000000013
#00956:00230000000000000000000000000000
#00952:0000000000000053
#0105b:0000000000000053
#01056:2300000000000033
#0115b:0000000000130063
#01152:0013006300000000
#01156:0000000023000033
#01157:2300004300000000
#01256:00630000
#01257:0000000000000053
#0145b:0000430000000063
#01452:0033
#01456:0000000000000063
#0135b:0000000000000023
#0045b:0000000000000063
#00456:0000000000000013
#02252:0000330000000053
#0225b:0043
#02257:0000000000000053
#02056:0000000000000063
#02057:00530000
#02152:0000000000000023
#03252:0000000000000013
#03257:002300000000000000000000000000000000000000000000000000000000000000000000000000000000000000000000000000000000000000000000000000000000000000000000000000000000000000000000000000000000000000000000000000000000000000000000000000000000000000000000000000000000000000000000000000000000000000000000000000000000000000000000000000000000000000000000000000000000000000000000000000000000000000000000000000000000000000000000000000000000000000000000000000000000000000000000000000000000000000000000000000000000000000000000000000000000000000000000000000000000000000000000000000000000000000000000000000000000000000000000000000000000000000000000000000000000000000000000000000000000000000000000000000000000000000000000000000000000000000000000000000000000000000000000000000000000000000000000000000000000000000000000000000000000000000000000000000000000000000000000000000000000000000000000000000000000000000000000000000000000000000000000000000000000000000000000000000000000000000000000000000000000000000000000000000000000000000000000000000000000000000000000000000000000000000000000000000000000000000000000000000000000000000000000000000000000000000000000000000000000000000000000000000000000000000000000000000000000000000000000000000000000000000000000000000000000000000000000000000000000000000000000000000000000000000000000000000000000000000000000000000000000000000000000000000000000000000000000000000000000000000000000000000000000000000000000000000000000000000000000000000000000000000000000000000000000000000000000000000000000000000000000000000000000000000000000000000000000000000000000000000000000000000000000000000000000000000000000000000000000000000000000000000000000000000000000000000000000000000000000000000000000000000000000000000000000000000000000000000000000000000000000000000000000000000000000000000000000000000000000000000000000000000000000000000000000000000000000000000000000000000000000000000000000000000000000000000000000000000000000000000000000000000000000000000000000000000000000000000000000000000000000000000000000000000000000000000000000000000000000000000000000000000000000000000000000000000000000000000000000000000000000000000000000000000000000000000000000000000000000000000000000000000000000000000000000000000000000000000000000000000000000000000000000000000000000000000000000000000000000000000000000000000000000000000000000000000000000000000000000000000000000000000000000000000000000000000000000000000000000000000000000000000000000000000000000000000000000000000000000000000000000000000000000000000000000000000000000000000000000000000000000000000000000000000000000000000000000000000000000000000000000000000000000000000000000000000000000000000000000000000000000000000000000000000000000000000000000000000000000000000000000000000000000000000000000000000000000000000000000000000000000000000000000000000000000000000000000000000000000000000000000000000000000000000000000000000000000000000000000000000000000000000000000000000000000000000000000000000000000000000000000000000000000000000000000000000000000000000000000000000000000000000000000000000000000000000000000000000000000000000000000000000000000000000000000000000000000000000000000000000000000000000000000000000000000000000000000000000000000000000000000000000000000000000000000000000000000000000000000000000000000000000000000000000000000000000000000000000000000000000000000000000000000000000000000000000000000000000000000530000000000000000000000000000000000000000000000000000000000000000000000000000000000000000000000000000000000000000000000000000000000000000000000000000000000000000000000000000000000000000000000000000000000000000000000000000000000000000000000000000000000000000000000000000000000000000000000000000000000000000000000000000000000000000000000000000000000000000000000000000000000000000000000000000000000000000000000000000000000000000000000000000000000000000000000000000000000000000000000
#03256:23
#04757:00230023
#0475b:0053000000530000
#04756:0000000000000063
#04752:23
#04656:0000000000000053
#0465b:0000000000000013
#0485b:0000000000000013
#04856:0000000000000063
#04857:00570000
#05156:00630000
#05152:0000002300000000
#0515b:0000000000000063
#05057:0000000000000053
#0505b:0063
#05056:23
#05256:0000000000000013
#05257:23
#0525b:0043000000000063
#04957:00630000
#04952:0000000000000053
#0495b:0000002300000000
#05452:0000000000000053
#0545b:00130013
#05456:0063
#06358:0046000000460046
#06352:3600003600000036
#05657:0000000000000013
#05652:0013000000000053
#0565b:0000001300000000
#05654:0000000000130000
#05856:0000000013000013
#05852:00530000
#0585b:0000000063000063
#05857:0000000000230000
#05952:0000000000230013
#0595b:0013
#05956:00536300
#05957:0000000000000053
#06256:2300000000130000
#0625b:0000002300130000
#06257:00530000
#0535b:00130013
#05552:00130013
#0555b:0000000000000013
#0335b:2300000000000063
#03456:0063
#03452:0000000000230000
#03457:23
#0345b:0013
#0365b:0000000000230000
#03656:23
#03657:0053
#03552:0000000000000053
#03858:0000001300000000
#0235b:0063000000000000
#02352:0000005300000000
#02357:0000000000000053
#0245b:0023000000000000
#01552:0053000000000000
#01556:0000000000000063
#0155b:0000006300000000
#01652:0023000000000053
#01657:0000000000000013
#02852:0000000000000053
#0285b:0000000000000013
#02858:52
#0285c:00220000
#02956:23
#0295b:0000000000000063
#02952:0000000000000013
#03057:2300530000000043
#02552:0052
#02556:0000000000000062
#02652:00000000002200000000000000000000
#0275c:0062
#03152:0000000000000053
#03156:0000003300000000
#0315b:0000000000000053
#04157:23
#0035b:0000000000000013
#00352:0000000000000013
#01756:0000000000000013
#01757:00230000000000000000000000000000
#0175b:0000000000000063
#01852:0000000000000063
#01857:2300000000000043
#01956:2300003300000000
#01952:0000000000330053
#01957:0000000023000043
#0195b:0043005300000000
#04256:0053
#000320:0000000000000013
#001360:0023000000000000
#001320:0013
#001360:00000023
#001360:0000000000000013
#002320:0023000000000000
#002360:0013
#002320:00000023
#0023b0:0000000000000013
#003370:0023000000000000
#0033b0:0013
#003370:00000023
#0043b0:0000000000000013
#005360:00530000000000000000000000000000
#0053b0:00230000
#0053b0:0000000000000013
#006360:0033000000000000
#0063b0:0000002300000000
#0063b0:00001323
#006370:0000000000530000
#006320:0000000000000013
#007370:00530000000000000000000000000000
#007320:00230000
#007320:0000000000000013
#008370:0033000000000000
#008320:0000002300000000
#0083b0:0000000000000013
#009360:00530000000000000000000000000000
#0093b0:00230000
#009320:0000000000000013
#010360:53
#010320:0023000000000000
#0103b0:0000000000000013
#011370:53
#0113b0:0023000000000000
#011320:0000001300230000
#011360:0053
#0113b0:0000000000000013
#012370:0023000000000000
#012360:00130000
#012320:0023
#012370:0000000000000013
#0133b0:0023000000000000
#0133b0:0000000000000013
#014370:0023000000000000
#0143b0:0000000000000013
#015370:0023000000000000
#014361:0000000000000013
#015321:0033000000000000
#015361:0000002300000000
#0153b0:0000001300000000
#015370:0000000000230000
#015360:0000000000000013
#016320:0053000000000000
#016360:0000002300000000
#016320:0000000000000013
#017370:00530000000000000000000000000000
#017320:00230000
#0173b0:0000000000000013
#018370:53
#0183b0:0023000000000000
#018320:0000000000000013
#019360:53
#019320:0023000000000000
#0193b0:0000001300230000
#019370:0053
#019320:0000000000000013
#020360:0023000000000000
#020370:00130000
#0203b0:0023
#020360:0000000000000013
#021320:0023000000000000
#021320:0000000000000013
#022360:0023000000000000
#022320:0000000000000013
#023360:0023000000000000
#022371:0000000000000013
#0233b1:0033000000000000
#023371:0000002300000000
#023320:0000001300000000
#023360:0000000000230000
#023370:0000000000000013
#0243b0:0053000000000000
#024370:0000002300000000
#0253c0:12323232
#0253b0:0032003200320032
#0263c0:32323222
#0263b0:0032003200320000
#025321:0012
#025361:00000022
#025361:0000000000000012
#026321:00000000005200000000000000000000
#026361:00000022
#027321:12323232
#027331:0032003200320032
#028321:32220000
#028331:0032000000000000
#0273c0:0012
#027380:00000022
#028380:1222
#0283c0:00520000
#028320:0000000000000013
#029360:53
#029320:0023000000000000
#0293b0:0000000000000013
#030370:53
#0303b0:0023000000000000
#030370:00130000
#0303b0:0023
#030320:0000000000000013
#030360:00000000000000000000000000000053
#031360:23
#0313b0:0000001300000000
#031370:00000000000000532300000000000000
#031320:0000000000000013
#032360:53
#032320:0023000000000000
#0313b1:0000000000000013
#032371:005300000000000000000000000000000000000000000000000000000000000000000000000000000000000000000000000000000000000000000000000000000000000000000000000000000000000000000000000000000000000000000000000000000000000000000000000000000000000000000000000000000000000000000000000000000000000000000000000000000000000000000000000000000000000000000000000000000000000000000000000000000000000000000000000000000000000000000000000000000000000000000000000000000000000000000000000000000000000000000000000000000000000000000000000000000000000000000000000000000000000000000000000000000000000000000000000000000000000000000000000000000000000000000000000000000000000000000000000000000000000000000000000000000000000000000000000000000000000000000000000000000000000000000000000000000000000000000000000000000000000000000000000000000000000000000000000000000000000000000000000000000000000000000000000000000000000000000000000000000000000000000000000000000000000000000000000000000000000000000000000000000000000000000000000000000000000000000000000000000000000000000000000000000000000000000000000000000000000000000000000000000000000000000000000000000000000000000000000000000000000000000000000000000000000000000000000000000000000000000000000000000000000000000000000000000000000000000000000000000000000000000000000000000000000000000000000000000000000000000000000000000000000000000000000000000000000000000000000000000000000000000000000000000000000000000000000000000000000000000000000000000000000000000000000000000000000000000000000000000000000000000000000000000000000000000000000000000000000000000000000000000000000000000000000000000000000000000000000000000000000000000000000000000000000000000000000000000000000000000000000000000000000000000000000000000000000000000000000000000000000000000000000000000000000000000000000000000000000000000000000000000000000000000000000000000000000000000000000000000000000000000000000000000000000000000000000000000000000000000000000000000000000000000000000000000000000000000000000000000000000000000000000000000000000000000000000000000000000000000000000000000000000000000000000000000000000000000000000000000000000000000000000000000000000000000000000000000000000000000000000000000000000000000000000000000000000000000000000000000000000000000000000000000000000000000000000000000000000000000000000000000000000000000000000000000000000000000000000000000000000000000000000000000000000000000000000000000000000000000000000000000000000000000000000000000000000000000000000000000000000000000000000000000000000000000000000000000000000000000000000000000000000000000000000000000000000000000000000000000000000000000000000000000000000000000000000000000000000000000000000000000000000000000000000000000000000000000000000000000000000000000000000000000000000000000000000000000000000000000000000000000000000000000000000000000000000000000000000000000000000000000000000000000000000000000000000000000000000000000000000000000000000000000000000000000000000000000000000000000000000000000000000000000000000000000000000000000000000000000000000000000000000000000000000000000000000000000000000000000000000000000000000000000000000000000000000000000000000000000000000000000000000000000000000000000000000000000000000000000000000000000000000000000000000000000000000000000000000000000000000000000000000000000000000000000000000000000000000000000000000000000000000000000000000000000000000000000000000000000000000000000000000000000000000000000000000000000000000000000000000000000000000000000000000000000000000000000000000000000000000000000000000000000000000000000000000000000000000000000000000000000000000000000000000000000000000000000000000000000000000000000000000000000000000000000000000000000000000000000000000000000000000000000000000000000000000000000000000000000000000000000000000000000000000000000000000000000000000000000000000000000000000000000000000000000000000000000000000000000000
#0323b1:0023000000000000
#032371:0000000000000013
#0333b1:53
#033371:0023000000000000
#0333b1:0000000000000013
#034371:53
#0343b1:0023000000000000
#034361:00001323
#034321:0000000000530000
#035321:0000000000000013
#036361:53
#036321:0023000000000000
#036371:00001323
#0363b1:0000000000530000
#037371:13
#0373b1:0023000000000000
#037320:13
#037360:0023000000000000
#037360:00130000
#037320:0000002300000000
#0373b1:00130000
#037371:0000002300000000
#0373b1:0000000000000013
#0383b1:23
#038321:0013230000000000
#0393b1:13230000
#039371:0053000000000000
#039321:0000001300230000
#039361:0053
#0403b1:0000000000000013
#041371:53
#0413b1:0023000000000000
#042361:0013
#042321:00000023
#044371:0000000000000013
#0453b1:53
#045371:0023000000000000
#045320:0013002300000000
#045360:00530000
#045320:0000000000130023
#045360:00000053
#045371:0000000000000013
#0463b1:0023000000000000
#046361:0000000000000013
#047321:53
#047361:0023000000000000
#0473b0:0013002300000000
#047370:00530000
#0473b0:0000000000130023
#047370:00000053
#047361:0000000000000013
#048321:0023000000000000
#048371:00170000
#0483b1:0000000053000023
#048360:0000000000000013
#049320:0023000000000000
#049370:00132300
#0493b0:0000005300000000
#049320:0000000000000013
#050360:53
#050320:0023000000000000
#0503b0:0013
#050370:00000023
#050370:0000000000000013
#0513b0:0023000000000000
#051360:00132300
#051320:0000005300000000
#0513b0:0000000000000013
#052370:53
#0523b0:0023000000000000
#0523b0:0000000000000013
#053370:0023000000000000
#054360:0013
#054320:00000023
#054320:0000000000000013
#055360:0023000000000000
#056320:0000000000000013
#057370:0023000000000000
#0573b1:0013230000000000
#057370:00130000
#057320:0023
#057371:00001323
#0573b1:0000000000530000
#057361:0000000000000013
#058321:0023000000000000
#058360:0013230000000000
#058321:00130000
#058361:0023
#0583b0:00001323
#058370:0000000000530000
#0583b0:0000000000000013
#059360:0023000000000000
#059321:0013230000000000
#059360:00130000
#0593b0:0023
#059361:00001323
#059321:0000000000530000
#059371:0000000000000013
#0603b1:0023000000000000
#060370:0013230000000000
#0603b0:0000000000000013
#061370:53
#0613b0:0023000000000000
#061360:00132300
#061320:0000005300000000
#061320:0000000000000013
#062360:53
#062320:0023000000000000
#062370:00132300
#0623b0:0000005300000000
#064320:00000000000000001c3c3c000000000000000000000000000000000000000000
#068370:0022
