This file was generated by Ched 2.7.0.0.
#TITLE ""
#ARTIST ""
#DESIGNER ""
#DIFFICULTY 0
#PLAYLEVEL
#SONGID ""
#WAVE ""
#WAVEOFFSET 0
#JACKET ""
#REQUEST "ticks_per_beat 480"
#00002: 4
#BPM01: 168
#00008: 01
#TIL00: ""
#HISPEED 00
#MEASUREHS 00
#00114:0014
#0011a:00000014
#00212:14
#00218:00140000
#00214:0014
#00314:0014
#00514:00140000
#00518:0014
#00512:00000014
#00618:14
#00614:00140000
#00718:00140000
#00714:0014
#0071a:00000014
#00712:14
#00814:14
#00818:00140000
#00810:0000000000000041
#0091a:00140000
#00914:0000000014000014
#00918:00000014
#0101a:00140000
#01012:0014
#01018:00000014
#01218:00000014
#01314:14
#0131a:00140000
#01312:0014
#01318:00000014
#01414:14
#0141a:00140000
#01412:0014
#01518:14
#01514:00140000
#0151a:0014
#01512:00000014
#01712:00140000
#01718:0000000014000014
#01714:00000014
#01812:00140000
#0181a:0014
#01814:00000014
#01810:0000000000000041
#02014:00000014
#02118:14
#02112:00140000
#0211a:0014
#02114:00000014
#02218:14
#02212:00140000
#0221a:0014
#02516:0000000000000014
#0251a:14343434
#0251f:11
#02712:14343400
#02716:00000014
#0281a:00000014
#02812:34340000
#02914:1414
#0291a:00140014
#03012:1414
#03018:00140000
#03318:0014
#03314:00000014
#03310:0041
#0341a:14
#03414:00140000
#03518:00140000
#03514:0014
#0351a:00000014
#03512:24
#03614:14
#03618:00140000
#0391a:14
#03914:00140000
#03918:0014
#03912:00000024
#04114:0014
#04118:00000014
#04212:14
#04218:00140000
#04314:00140000
#04318:0014
#04312:00000014
#0431a:24
#04310:0041
#04418:14
#04414:00140014
#0441a:0014
#0451a:0000000000000014
#04614:00000014
#04814:0014
#04818:00000014
#04812:0000000000000014
#0501a:0000000014003434
#05212:0000000000000014
#05316:00000000000000000000000000000014
#05518:0014
#05614:14
#0561a:00140000
#05612:0014
#05618:00000014
#0571a:0014
#05818:0014
#0591a:0014
#05910:0041
#06018:0014
#06014:0000000000140000
#06112:0014
#06214:0014
#03212:0000000000000024
#0321f:0000000000000021
#0401a:0000000000000024
#06318:24
#06314:0024000000000000
#0631a:0000002400000000
#06316:0000000000240000
#06312:0000000000000024
#01618:00343400
#0261a:34343400
#0511a:0000003400000034
#05110:0041
#01452:0014
#0225a:0014
#0255a:54
#02556:0000000000000024
#02752:64
#02756:00000024
#03052:0014
#03952:00000014
#0455a:0000000000000054
#04852:0000000000000054
#0505a:0054
#05252:0000000000000054
#05356:00000000000000000000000000000024
#000380:0000000000000014
#001380:0034240000000000
#002380:0000000000001434
#003380:00240000
#0033a0:0000000000001434
#004380:0034340000003424
#0043a0:0034
#0063a0:00001424
#008320:0000000014003424
#010340:0000000000000014
#011330:0034000000340000
#011320:0000003400000000
#011340:0000000000000034
#012340:0024
#016380:14343400
#0163a0:0000000000003424
#018380:0000000000000014
#019390:0034000000340000
#0193a0:0000003400000000
#019380:0000000000000034
#020380:0024
#022340:0000000000001434
#023340:0024000000000000
#023380:0000001400240000
#023320:0000000000000014
#024320:00000024
#0253a0:14343434
#025360:0000000000000054
#0263a0:34343424
#027320:14343400
#027360:00000034
#028320:34342400
#0303a0:0000000000000014
#0313a0:0024000000000000
#031340:0000001400240000
#031380:0000000000000014
#032380:0024000000000000
#032320:0000000000000014
#033320:0034240000000000
#034380:00001424
#036320:00001424
#0373a0:14240000
#037340:00001424
#038380:14240000
#038320:00001424
#0403a0:0000000000000014
#0413a0:0034240000000000
#042340:00001424
#044380:0000000000000014
#045380:0024000000000000
#045340:0000001400240000
#0453a0:0000000000000014
#046380:0024
#046380:0000000000000014
#047380:0024000000000000
#047320:0000001400240000
#0473a0:0000000000000014
#0483a0:0034240000000000
#048320:0000000000000014
#050360:24
#0503a0:0000000014003434
#0513a0:0000003400000034
#052360:0024000000000000
#052320:0000000000143434
#053360:00000000000000000000000000000054
#055320:24
#056340:0000000000000014
#057340:0034240000000000
#057320:0000000000000014
#058320:0034240000000000
#058340:0000000000000014
#059340:0034240000000000
#059320:0000000000000014
#060320:0034240000000000
#060380:0000000000000014
#061380:0034240000000000
#0613a0:0000000000000014
#0623a0:0034240000000000
#0643a0:00140000
#0683a0:0024
