This file was generated by Ched 2.7.0.0.
#TITLE ""
#ARTIST ""
#DESIGNER ""
#DIFFICULTY 0
#PLAYLEVEL
#SONGID ""
#WAVE ""
#WAVEOFFSET 0
#JACKET ""
#REQUEST "ticks_per_beat 480"
#00002: 4
#BPM01: 170
#00008: 01
#TIL00: ""
#VOLUME: ""
#HISPEED 00
#MEASUREHS 00
#0011a:14
#0021a:14
#00312:14
#00412:14
#00518:14
#00618:14
#00714:14
#00814:14
#0091a:14
#00910:41
#01012:14
#0111a:14
#01212:14
#01318:14
#01414:14
#01518:14
#01614:14
#0581a:14
#05812:0014
#0591a:14
#05912:0014
#02712:0016
#02718:16
#03018:1616
#03112:1616
#03218:16
#03212:0016
#02612:0016
#02618:26
#02610:41
#03518:0016
#03512:16
#03812:1616
#03810:41
#03918:1616
#04012:16
#04018:0016
#03418:0016
#03412:26
#06018:14
#06014:0014
#06118:14
#06114:0014
#0621a:14
#06212:0014
#06210:41
#0631a:14
#06312:0014
#06418:14
#06414:0014
#06518:14
#06514:0014
#0701a:14
#07012:0014
#07118:14
#07114:0014
#0721a:14
#07212:0014
#07318:14
#07314:0014
#0661a:14
#06614:0014
#0671a:14
#06714:0014
#06818:14
#06812:0014
#06918:14
#06912:0014
#0421f:11
#02313:24000024
#02319:24000024
#02412:0025
#02419:0025
#02512:00250000
#02519:00250000
#0521f:21
#05310:41
#01810:41
#0173a0:14
#0183a0:0024
#019320:14
#020320:0024
#021380:14
#022380:0024
#028380:1626
#029320:1626
#033380:1626
#036320:1626
#037380:1626
#041320:1626
#042380:14
#042390:0034
#0433a0:3424
#044340:14
#044330:0034
#045320:3424
#0463a0:14
#046390:0034
#047380:3424
#048320:14
#049320:0024
#052380:1626
#053320:1626
#054380:1626
#055320:1626
#056380:1626
#057320:1626
