This file was generated by Ched 2.7.0.0.
#TITLE ""
#ARTIST ""
#DESIGNER ""
#DIFFICULTY 0
#PLAYLEVEL
#SONGID ""
#WAVE ""
#WAVEOFFSET 0
#JACKET ""
#REQUEST "ticks_per_beat 480"
#00002: 4
#BPM01: 170
#00008: 01
#TIL00: ""
#VOLUME: ""
#HISPEED 00
#MEASUREHS 00
#0421f:11
#04216:0000001313001300
#0421b:0000000000000013
#04217:13
#04212:23
#07212:1414000014000014
#0721a:1400001414140000
#07216:00240024
#07112:0024000000000014
#0711a:0000001414140000
#07116:00240024
#05112:00000016
#05118:0012000016000000
#05116:12120000
#05114:0000001200000000
#02516:0014001400000014
#02514:00001414
#02512:0000140000140000
#02518:14
#0251a:00240000
#02418:00000014
#0241a:0000000014000014
#02416:0000001300140000
#02414:13130000
#02412:0013000023000000
#02316:0000000000000013
#02312:23000013
#02317:0013000000130000
#02319:00131300
#0231b:1300001300002300
#06516:0013
#06519:0000001300000000
#0651b:1313
#06512:1313000000000000
#06517:00230023
#06419:0000001300000013
#0641b:1313
#06412:1313000013130000
#06417:00230023
#06317:0013
#06314:0000001300000000
#06312:1313
#0631b:1313000000000000
#06316:00230023
#06214:0000001300000013
#06212:1313
#0621b:1313000013130000
#06216:00230023
#06210:41
#0701a:1414000014000024
#07012:1400001414140000
#07016:00240024
#0011a:1200001200000000
#00114:1200000012000012
#00116:0000001200000000
#00118:0000000012000012
#0051a:1200000012000012
#00514:1200001200000000
#00518:0000001200000000
#00516:0000000012000012
#00216:1200000000000012
#0021a:12
#00218:0000001200001200
#0031a:1200001200000000
#00314:1200000012000012
#00316:0000001200000000
#00318:0000000012000012
#00416:12000012
#0041a:12
#00418:0012
#00618:1200000000000012
#00614:12
#00616:0000001200001200
#00714:1200001200000000
#0071a:1200000012000012
#00718:0000001200000000
#00716:0000000012000012
#00818:1200000000120000
#00814:12000012
#00816:0012
#0081a:0000000000000012
#0181b:00130013
#01816:13
#01818:0000000000130000
#01815:0013
#01810:41
#01712:13000013
#0171b:2300001300000000
#01717:00000023
#01716:0000002300000000
#01612:0000000000000013
#01615:0012000000001300
#01618:0000000000130000
#0161b:0013
#01613:12
#01617:00120000
#01619:0000001200000000
#02012:00131300
#02017:13
#0201b:0000000000000013
#02018:00000013
#02015:0000000000130000
#0191b:13000013
#01912:2300001300000000
#01916:00000023
#01917:0000002300000000
#0221b:00130000
#02216:13
#02212:00000013
#02215:0000000000130000
#02218:0013
#02112:0000002300001300
#02116:13
#0211b:23130023
#02117:0013
#0261c:1212
#02618:0000001200000000
#02616:0000000012000012
#02610:41
#02718:0000000012000012
#0271a:12
#02714:1200001200000000
#02712:0012
#02816:0000001212000000
#02818:1200000000000012
#02916:0000000012000012
#0291a:0000000000120000
#02918:12000012
#03014:2200001200000000
#0301a:0000000000000012
#03018:12
#03016:0012
#0301c:00120000
#03012:00000012
#03116:0000001200000000
#03114:0012
#0311a:0012
#03112:0000000000000012
#03118:12
#03218:12
#0321c:0000001212000000
#03212:1200000000000012
#0331c:0012
#03316:0000000000120000
#0331a:00000012
#03314:0000000000000012
#03312:12
#03416:0000001200000000
#03412:0000000000000012
#03418:12
#0341c:0012
#03516:0000001212000000
#0351c:0012
#03518:1200000000000012
#03618:0000001200000000
#0361c:0000000000000012
#03616:12
#03612:0012
#03718:0000000012000012
#03714:0000000000120000
#03716:12000012
#03918:0000001200000000
#0391a:0012
#03914:0012
#0391c:0000000000000012
#03916:22
#04016:12
#04012:0000001212000000
#0401c:1200000000000012
#04112:0012
#04115:0000000000000012
#0411c:12
#04318:0000000000000013
#04312:0000000000130000
#04315:00000013
#0431b:13
#04417:0000001313001300
#04412:0000000000000013
#04416:13
#0441b:23
#0451b:0000000000130000
#04518:00000013
#04515:0000000000000013
#04512:13
#04612:2300001313001300
#04617:0000000000000013
#0461b:13
#0471b:0000000000130013
#04712:00000013
#04717:13
#04815:16
#04915:00000016
#05016:1200120000120000
#05018:0012000012001200
#05014:0000001200000000
#0501a:0000000000000012
#0521b:0013000013001300
#05218:2300130000130000
#05215:0000001313000013
#0521f:21
#05318:13131300
#05312:1313001300000013
#05315:00001313
#0531b:0000000000130000
#05310:41
#05418:1300130000130000
#05415:0013000013001300
#0541b:0000001313000000
#05412:0000000000000013
#05518:1300130013000013
#05515:0013000000130000
#0551b:0000001300001300
#05512:1313
#0571b:1313001300001300
#05715:13131300
#05718:0013
#05712:0000000000130000
#05816:1313
#0581b:1313000013130000
#05814:0000001300000013
#05812:00230023
#05916:1313
#0591b:1313000013000000
#05914:0000001300000000
#05912:00230023
#0661b:13000013
#06612:1300231313000000
#06619:0013000000130000
#06617:00131300
#06616:0000000000002313
#0671b:13
#06719:0013000000000000
#06717:00130000
#06712:0000231313000000
#06716:13000023
#06812:13000013
#0681b:1300231313000000
#06814:0013000000130000
#06816:00131300
#06817:0000000000002313
#06912:13
#06914:0013000000000000
#06916:00130000
#0691b:0000231313000000
#06917:13000023
#03812:00120000
#0381c:00000012
#0381a:2200002200000000
#03816:22
#03818:0022
#03814:0000000000000022
#03810:41
#00912:22140014
#0091a:0000001200000012
#00910:41
#01012:00140014
#0101a:0000001200000012
#0111a:00140014
#01114:0000001200000012
#0121a:00140014
#01216:0000000012000012
#01218:0000000000120000
#01214:00000012
#01312:00140014
#0131c:0000001200000000
#01316:0000000000000012
#01412:00140014
#0141c:0000001200000000
#01418:0000000000000012
#0151a:00140014
#01512:0000001200000000
#01518:0000000000000012
#06017:1313
#06012:1313000013130000
#06019:0000001300000013
#0601b:00230023
#06117:1313
#06112:1313000013000000
#06119:0000001300000000
#0611b:00230023
#05615:1300130000130000
#05612:0013000013001300
#05618:0000001313000013
#0731a:2424
#07312:2424
#07314:0000002400000000
#07318:00240000
#07316:0024000000000000
#05152:00000056
#05158:0066
#02556:0024002400000024
#02554:00005454
#02552:0000540000240000
#02558:64
#0255a:00440000
#02458:00000064
#0245a:0000000064000024
#02456:0000002300240000
#02454:53530000
#02452:0023000033000000
#02356:0000000000000023
#02352:33000053
#02357:0023000000230000
#02359:00636300
#0235b:6300002300004300
#06556:0063
#06357:0053
#0015a:12
#00154:12
#0055a:12
#00554:12
#01856:23
#01752:53000053
#0175b:1300006300000000
#01757:00000013
#01756:0000001300000000
#02057:23
#0195b:63000063
#01952:1300005300000000
#01956:00000013
#01957:0000001300000000
#02256:23
#02152:0000001300005300
#02156:63
#02157:0053
#0215b:13000013
#04855:66
#02858:52
#02856:0062
#02958:52
#03058:52
#03056:0062
#0305c:00220000
#03052:00000022
#03054:12
#03158:52
#03656:62
#03652:0052
#03756:62
#03458:52
#0345c:0062
#03558:52
#0405c:62
#04052:0052
#0415c:62
#03352:52
#0325c:0062
#03252:52
#03852:00220000
#0385c:00000022
#0385a:12
#03856:62
#03858:0052
#0435b:63
#04552:53
#04757:53
#04652:00000053
#0465b:63
#04457:00000053
#04456:63
#04256:00000063
#04257:53
#0595b:0063
#06152:0053
#05358:0053
#0535b:0000000000230000
#05355:00000063
#05352:0000000000000023
#0555b:00000063
#05558:0000000000000023
#05552:0053
#05555:0000000000230000
#05755:0063
#05752:0000000000230000
#03956:62
#0705a:0000000000000014
#07152:0014000000000000
#04957:0012
#002360:0012
#002320:00000022
#006380:0012
#0063c0:00000022
#0093c0:12220000
#009380:00001222
#0103c0:12220000
#010380:00001222
#011320:12220000
#011360:00001222
#012320:12220000
#013380:12
#0133a0:00220000
#0133a0:0012
#013380:00000022
#014380:12
#0143a0:00220000
#0143a0:0012
#014380:00000022
#015360:12
#015340:00220000
#015340:0012
#015360:00000022
#017320:13
#017360:0000002300000000
#0173b1:0000001300000000
#017371:00000023
#017320:00000013
#018360:53
#018320:00230000
#0193b0:13
#019370:0000002300000000
#019321:0000001300000000
#019361:00000023
#0193b0:00000013
#020370:53
#0203b0:00230000
#021360:13
#021320:00230000
#021370:0013
#0213b0:00000023
#021321:00000013
#022361:53
#022321:00230000
#0233b1:1300005300002300
#023371:0053000000530000
#023391:00333300
#023320:00000013
#023360:0000000000000053
#024340:33330000
#024320:0053000023000000
#024360:0000005300000000
#0243a1:0000000014000054
#024361:0000000000540000
#024381:00000034
#025381:34
#025361:0054000000000000
#0253a1:00240000
#025320:0000140000540000
#025360:0000005400000054
#025340:00003434
#026320:24
#028380:12
#0283c0:0022
#028361:0012
#029321:22
#029380:12
#0293c0:0022
#030380:1222
#0303c0:00520000
#030361:0012
#030321:00000052
#031361:22
#031380:12
#0313c0:0000002200000000
#032320:12
#032360:0022
#0323c1:0012
#033381:22
#033320:12
#033360:0022
#034380:12
#0343c0:0000002200000000
#0343c0:0012
#034380:0000000000000022
#035380:12
#0353c0:0000002200000000
#036360:12
#036320:0000002200000000
#036320:0012
#036360:0000000000000022
#037360:12
#037320:0022
#038360:1222
#038320:00520000
#038381:0012
#0383c1:00000052
#039381:22
#039360:12
#039320:0000002200000000
#0403c0:12
#040380:0022
#040321:0012
#041361:22
#0413c0:12
#041380:0022
#042370:13
#0423b0:00000023
#042361:00000013
#043321:0023
#0433b0:13
#043370:0023
#044360:13
#044320:00000023
#044371:00000013
#0453b1:0023
#045320:13
#045360:0023
#0463b0:13
#046370:00000023
#046321:00000013
#047351:0023
#047370:13
#0473b0:0023
#048350:16
#048370:00520000
#049370:0022
#051380:00000000000000001600005222000000
#051321:00000016
#051361:00000000000000000000000000520000
#052361:22
#053381:00001323
#0533b1:0000000000530000
#053350:00000013
#053320:0000000000000053
#054350:23
#055320:00001323
#055350:0000000000530000
#0553b1:00000013
#055381:0000000000000053
#0563b1:23
#057351:00001323
#057321:0000000000530000
#0593b1:0013
#059371:00000023
#061321:0013
#061361:00000023
#063371:0013
#0633b1:00000023
#065361:0013
#065321:00000023
#067371:0013
#0673b1:00000023
#069361:0013
#069321:00000023
