This file was generated by Ched 2.7.0.0.
#TITLE ""
#ARTIST ""
#DESIGNER ""
#DIFFICULTY 0
#PLAYLEVEL
#SONGID ""
#WAVE ""
#WAVEOFFSET 0
#JACKET ""
#REQUEST "ticks_per_beat 480"
#00002: 4
#BPM01: 170
#00008: 01
#TIL00: ""
#VOLUME: ""
#HISPEED 00
#MEASUREHS 00
#05318:1313
#05312:0000001300000000
#0531b:00130000
#05315:0013000000000000
#05310:41
#05512:1313
#05518:0000001300000000
#05515:00130013
#0551b:0013000000000000
#0521b:0013
#05212:0000001300000013
#05218:00130013
#05215:0013000000130000
#0521f:21
#01616:12
#0161b:0013
#01612:0000000000000013
#01615:0000000000130000
#01618:00000013
#01112:0000000000000012
#01114:0000001200000000
#01016:0000000000000012
#01014:0000001200000000
#00912:0000000000000012
#00914:0000001200000000
#00910:41
#0701a:1414000000002400
#07012:0000000014140024
#07016:0000241400000000
#06618:0013001300002300
#0661b:13
#06615:0000230000130013
#06612:0013
#0631b:1313000000000000
#06318:00001313
#06315:0000231300000000
#06312:00000023
#06218:0000000013130000
#06215:0000231300000000
#0621b:1313000000000000
#06212:0000000000002313
#06210:41
#05812:0000001300000013
#05818:0013000000130000
#0581b:1313
#05815:00230023
#05418:0000001300000013
#05415:1313
#05412:00130013
#0541b:0013000000130000
#05118:12000000120000001600001316000000
#05114:0012001200000000
#04915:00000013
#04318:1300000000000013
#04115:0000000000000013
#02916:0000000000120012
#02918:00000012
#02012:0013
#0201b:0000000000000013
#02015:00000013
#02018:0000000000130000
#01818:00001313
#01815:0000000000130000
#01810:41
#00616:1200000000000012
#0061a:0012
#00614:0000001200000000
#00518:0000000012000012
#00516:0000001200000000
#00514:12
#0051a:12
#00418:12000012
#00416:0012
#00316:1200000012000012
#00318:0000001200000000
#0021a:0000001200000000
#00218:1200000000000012
#00116:0000000012000012
#00118:0000001200000000
#00114:12
#0011a:12
#0711a:0024000014140000
#07112:0000001400000000
#07116:0000000000002414
#07216:0000241400002414
#07212:1414000000000000
#0721a:0000000014140000
#00816:1200000000120012
#00818:00001212
#00718:1200000012000012
#00716:0000001200000000
#01216:00001212
#01218:0000000000120012
#01518:0000000000000012
#0151a:0000001200000000
#01418:0000000000000012
#0141a:0000001200000000
#0131c:0000000000000012
#0131a:0000001200000000
#02215:00001313
#02218:0000000000130000
#02118:00140000
#0211a:0014
#02112:24
#02114:0000002400000000
#02116:00000024
#02412:00000014
#0241b:1323
#02417:00130000
#02312:00130023
#02316:0013
#0231b:23
#02516:14000014
#0251a:0014
#02512:00240000
#0271a:0012
#02716:0000001200000000
#02718:12
#02714:0000000000000012
#0261a:0012
#02614:0000000000000012
#02616:0000001200000000
#02610:41
#03014:0000001200000000
#03018:22
#0321a:0000000000000012
#03214:0012
#03216:12
#03218:0000001200000000
#0311a:0000000000000012
#03318:0000000000120012
#03316:00000012
#03718:0000000000120012
#03716:00000012
#03514:0012
#03518:0000001200000000
#03516:12
#0351a:0000000000000012
#03414:0012
#0341a:0000000000000012
#03418:0000001200000000
#03416:12
#04014:0000000000000012
#0401a:0012
#04018:12
#04016:0000001200000000
#03914:0000000000000012
#0391a:22
#04218:13
#04215:0013
#0421f:11
#04518:0000000000000013
#04512:13
#04615:13
#04618:0013
#04715:1300000000000013
#04412:13
#0441b:0013
#05016:0012001200120012
#0501a:12120000
#05018:00001212
#05715:1313
#0571b:0000001300000000
#05712:00130000
#05718:0013000000000000
#05612:0013
#0561b:0000001300000013
#05615:00130013
#05618:0013000000130000
#05912:0000001300000000
#05918:0013000013000000
#0591b:13000013
#05915:00230023
#0601b:0000001300000013
#06015:0013000000130000
#06012:1313
#06018:00230023
#0611b:0000001300000000
#06115:0013000013000000
#06112:13000013
#06118:00230023
#06512:1313000000000000
#06515:00001313
#06518:0000231300000000
#0651b:00000023
#06415:0000000013130000
#06418:0000231300000000
#06412:1313000000000000
#0641b:0000000000002313
#06718:0013001300002300
#0671b:13
#06712:00001313
#06715:00230000
#06815:0013001300002300
#06812:13
#06818:0000230000130013
#0681b:0013
#06915:0013001300002300
#06912:13
#0691b:00001313
#06918:00230000
#0171a:24
#01716:0000002400000000
#01712:00000024
#01912:24
#01916:0000002400000000
#0191a:00000024
#03816:22
#0381a:0000002200000000
#03814:0022
#03810:41
#07312:24
#0731a:0024000000000000
#07313:00240000
#07319:0000002400000000
#07314:0024
#05358:0053
#05158:00000000000000006600002356000000
#00554:12
#0055a:12
#00154:12
#0015a:12
#02452:00000054
#0245b:6313
#02457:00530000
#02352:00530013
#02356:0063
#0235b:13
#02556:64000054
#0255a:0064
#02552:00140000
#04258:53
#04255:0063
#04358:53
#04655:63
#04658:0053
#04755:63
#04452:53
#0445b:0063
#04552:53
#05755:0063
#05552:0053
#05555:00000063
#0715a:0014000000000000
#07052:0000000000000014
#0175a:14
#01756:0000001400000000
#01752:00000014
#01952:14
#01956:0000001400000000
#0195a:00000014
#02152:14
#02154:0000001400000000
#02156:00000014
#03058:12
#03856:12
#04958:0013
#002340:00001222
#009380:12220000
#0093a0:00001222
#0103c0:12220000
#0103a0:00001222
#011380:12220000
#0113a0:00001222
#0123c0:12220000
#013360:12220000
#013340:00001222
#014320:12220000
#014340:00001222
#015360:12220000
#015340:00001222
#023320:00130023
#023360:0033
#0243b0:1323
#024370:00330000
#024320:00000014
#025360:34
#025320:00240000
#0253a0:0014
#025360:00000034
#0263a0:24
#028380:1200000000000032
#0283a0:0000003232000000
#029380:32
#0293a0:0022
#0303a0:0000000012000032
#0313a0:22
#031341:1200003222000000
#033361:1222
#036361:1200000000000032
#036341:0000003232000000
#037361:32
#037341:0022
#038341:0000000012000032
#039341:22
#0393a0:1200003222000000
#041380:1222
#042380:13
#0423b0:0000002300000000
#042350:0013
#042320:0000000000000023
#043380:13
#0433b0:0023
#044320:13
#044350:0000002300000000
#0443b0:0013
#044380:0000000000000023
#045320:13
#045350:0023
#046350:13
#046320:0000002300000000
#046380:0013
#0463b0:0000000000000023
#047350:13
#047320:0023
#048380:13
#049380:0023
#051380:00000000000000001600005356000000
#0513b0:0000000000000053
#0523b0:23
#053380:0013
#0533b0:00000023
#055320:0013
#055350:00000033
#056320:23
#057350:0013
#057320:00000023
