This file was generated by Ched 2.7.0.0.
#TITLE ""
#ARTIST ""
#DESIGNER ""
#DIFFICULTY 0
#PLAYLEVEL
#SONGID ""
#WAVE ""
#WAVEOFFSET 0
#JACKET ""
#REQUEST "ticks_per_beat 480"
#00002: 4
#BPM01: 170
#00008: 01
#TIL00: ""
#VOLUME: ""
#HISPEED 00
#MEASUREHS 00
#07218:14140000
#07216:0000001400000014
#0721a:0014000014002400
#07212:1400240000140000
#07214:00001414
#03212:1212
#03217:1212
#0321c:0000001200000012
#0321c:0000000000000012
#03016:00120000
#0301c:1200000000000012
#03012:0000001212000000
#03017:22
#07018:1400000000140000
#0701a:0014141414000000
#07012:1400240014002414
#07016:0000000000001428
#04912:0000001c
#04812:1c
#04316:1300000000000013
#0431b:1313000013131313
#04317:0000001300000000
#04214:0000001300000013
#0421b:2313131300002313
#04217:0000000000130000
#04216:1313
#0421f:11
#04119:0000000000000012
#0411c:12
#04114:0012
#04117:12120000
#03314:0000000000000012
#03316:00000012
#03318:0000000000120000
#03312:12
#0331a:0012
#03317:12120000
#02714:0000001200000000
#0271a:0000000000000012
#0261a:0000000000000012
#02614:0000001200000000
#02610:41
#0291a:0000000000120012
#02918:00000012
#0291c:12
#02917:00121200
#02912:00000012
#02117:0000130000130000
#02112:1300002300001300
#02116:0013000000000000
#02119:0000001300000000
#0211b:23001323
#01712:1300002300131300
#01716:00000013000000000000000000000000
#0171b:2300131300002300
#01717:00000000000000000013000000000000
#01818:00000000120000000000120000120012
#01812:0014
#01816:0000001200001212
#01817:13
#0181a:0014
#01810:41
#00414:12000012
#0041a:00000012
#0041c:0000000000120000
#00418:12
#00416:0012
#0461b:2313131300002313
#04617:0000000000130000
#04614:0000001300000013
#04612:1300000000130000
#04616:0013000013000000
#0471b:1313001300000000
#04718:0000000013141516
#04712:13000000000000000000000000000016
#04713:00000000000000000000000000150000
#04714:00000000000000000000001400000000
#04715:00000000000000000013000000000000
#04716:00130000
#04517:1300000000000013
#04512:1313000013131313
#04516:0000001300000000
#04412:2313131300002313
#04416:0000000000130000
#04419:0000001300000013
#04417:1313
#05017:12121212
#0501b:0012000000120000
#05013:0000001200000012
#05117:12120000
#0511b:0012000000000000
#05113:0000001200000000
#05112:0019
#05115:00000019
#05712:1313131c
#05717:13131300
#0571b:0013001300000000
#07116:1400001400140000
#07112:0028000000000014
#07114:00001414
#0711a:0014240014002400
#02412:13132414
#02416:000000000000000000000000000000000000000000000000000000000000000000000000000000000000000000000000000000000000000000000000000000000000000000000000000000000000000000000000000000000000000000000000000000000000000000000000000000000000000000000000000000000000000000000000000000000000000000000000000000000000000000000000000000000000000000000000000000000000000000000000000000000000000000000000000000000000000000000000000000000000000000000000000000000000000000000000000000000000000000000013000000000000000000000000000000000000000000000000000000000000000000000000000000000000000000000000000000000000000000000000000000000000000000000000000000000000000000000000000000000000000000000000000000000000000000000000000000000000000000000000000000000000000000000000000000000000000000000000000000000000000000000000000000000000000000000000000000000000000000000000000000000000000000000000000000000000000000000000000000000000000000000000000000000000000000000000000000000000000000000000000000000000000000000000000000000000000000000000000000000000000000000000000000000000000000000000000000000000000000000000000000000000000000000000000000000000000000000000000000000000000000000000000000000000000000000000000000000000000000000000000000000000000000000000000000000000000000000000000000000000000000000000000000000000000000000000000000000000000000000000000000000000000000000000000000000000000000000000000000000000000000000000000000000000000000000000000000000000000000000000000000000000000000000000000000000000000000000000000000000000000000000000000000000000000000000000000000000000000000000000000000000000000000000000000000000000000000000000000000000000000000000000000000000000000000000000000000000000000000000000000000000000000000000000000000000000000000000000000000000000000000000000000000000000000000000000000000000000000000000000000000000000000000000000000000000000000000000000000000000000000000000000000000000000000000000000000000000000000000000000000000000000000000000000000000000000000000000000000000000000000000000000000000000000000000000000000000000000000000000000000000000000000000000000000000000000000000000000000000000000000000000000000000000000000000000000000000000000000000000000000000000000000000000000000000000000000000000000000000000000000000000000000000000000000000000000000000000000000000000000000000000000000000000000000000000000000000000000000000000000000000000000000000000000000000000000000000000000000000000000140000000000000000000000000000000000000000000000000000000000000000000000000000000000000000000000000000000000000000000000000000000000000000000000000000000000000000000000000000000000000000000000000000000000000000000000000000000000000000000000000000000000000000000000000000000000000000000000000000000000000000000000000000000000000000000000000000000000000000000000000000000000000000000000000000000000000000000000000000000000000000000000000000000000000000000000000000000000000000000000000000000000000000000000000000000000000000000000000000000000000000000000000000000000000000000000000000000000000000000000000000000000000000000000000000000000000000000000000000000000000000000000000000000000000000000000000000000000000000000000000000000000000000000000000000000000000000000000000000000000000000000000000000000000000000000000000000000000000000000000000000000000000000000000000000000000000000000000000000000000000000000000000000000000000000000000000000000000000000000000000000000000000000000000000000000000000000000000000000000000000000000000000000000000000000000000000000000000000000000000000000000000000000000000000000000000000000000000000000000000000000000000000000000000000000000000000000000000000000000000000000000000000000000000000000000000000000000000000000000000000000000000000000000000000000000000000000000000000000000000000000000000000000000000000000000000000000000000000000000000000000000000000000000000000000000000000000000000000000000000
#0241a:00001414
#02415:0000000000000014
#0241b:13
#02417:0013001300000000
#02512:14141414
#0251a:14241414
#02514:0014000000000000
#02516:0000001400000000
#02517:0000000000140000
#02518:0000000000000014
#02312:24130013
#02316:0000001300130000
#02317:000000000000000000000000000000000000000000000000000000000000000000000000000000000000000000000000000000000000000000000000000000000000000000000000000000000000000000000000000000000000000000000000000000000000000000000000000000000000000000000000000000000000000000000000000000000000000000000000000000000000000000000000000000000000000000000000000000000000000000000000000000000000000000000000000000000000000000000000000000000000000000000000000000000000000000000000000000000000000000000000000000000000000000000000000000000000000000000000000000000000000000000000000000000000000000000000000000000000000000000000000000000000000000000000000000000000000000000000000000000000000000000000000000000000000000000000000000000000000000000000000000000000000000000000000000000000000000000000000000000000000000000000000000000000000000000000000000000000000000000000000000000000000000000000000000000000000000000000000000000000000000000000000000000000000000000000000000000000000000000000000000000000000000000000000000000000000000000000000000000000000000000000000000000000000000000000000000000000000000000000000000000000000000000000000000000000000000000000000000000000000000000000000000000000000000000000000000000000000000000000000000000000000000000000000000000000000000000000000000000000000000000000000000000000000000000000000000000000000000000000000000000000000000000000000000000000000000000000000000000000000000000000000000000000000000000000000000000000000000000013000000000000000000000000000000000000000000000000000000000000000000000000000000000000000000000000000000000000000000000000000000000000000000000000000000000000000000000000000000000000000000000000000000000000000000000000000000000000000000000000000000000000000000000000000000000000000000000000000000000000000000000000000000000000000000000000000000000000000000000000000000000000000000000000000000000000000000000000000000000000000000000000000000000000000000000000000000000000000000000000000000000000000000000000000000000000000000000000000000000000000000000000000000000000000000000000000000000000000000000000000000000000000000000000000000000000000000000000000000000000000000000000000000000000000000000000000000000000000000000000000000000000000000000000000000000000000000000000000000000000000000000000000000000000000000000000000000000000000000000000000000000000000000000000000000000000000000000000000000000000000000000000000000000000000000000000000000000000000000000000000000000000000000000000000000000000000000000000000000000000000000000000000000000000000000000000000000000000000000000000000000000000000000000000000000000000000000000000000000000000000000000000000000000000000000000000000000000000000000000000000000000000000000000000000000000000000000000000000000000000000000000000000000000000000000000000000000000000000000000000000000000000000000000000000000000000000000000000000000000000000000000000000000000000000000000000000000000000000000000000000000000000000000000000000000000000000000000000000000000000000000000000000000000000000000000000000000000000000000000000000000000000000000000000000000000000000000000000000000000000000000000000000000000000000000000000000000000000000000000000000000000000000000000000000000000000000000000000000000000000000000000000000000000000000000000000000000000000000000000000000000000000000000000000000000000000000000000000000000000000000000000000000000000000000000000000000000000000000000000000000000000000000000000000000000000000000000000000000000000000000000000000000000000000000000000000000000000000000000000000000000000000000000000000000000000000000000000000000000000000000000000000000000000000000000000000000000000000000000000000000000000000000000000000000000000000000000000000000000000000000000000000000000000000000000000000000000000000000000000000000000000000000000000000000000000000000000000000000000000000000000000000000000000000000000000000000000000000000000000000
#0231b:00131300
#0231a:00000024
#01418:1200001200120000
#01416:00000012
#01412:0000001300000013
#0141a:00140014
#01415:0013
#01316:00000012
#01318:0000001200120000
#0131a:0000140000001412
#01312:0000001300000013
#01315:0013
#01018:0000001200120000
#01016:00000012
#0101a:12140014
#01012:0000001313000013
#00918:2200001200120012
#00912:0000001313000013
#0091a:00140014
#00916:00000012
#00910:41
#0011a:1200001200120012
#00118:00000012
#00114:1200000012000012
#00116:0000001200000000
#0021c:1200001200001200
#0021a:0000000000120000
#00216:1200001200000000
#00214:0000000000000012
#0031a:1200001200120012
#0031c:00000012
#00316:1200000012000012
#00314:0000001200000000
#0081a:1200000000120012
#0081c:0012
#00814:00000012
#00812:0000000000120000
#00816:12
#00818:00000012
#00514:1200001200120012
#00516:00000012
#0051a:1200000012000012
#00518:0000001200000000
#00612:1200001200001200
#00614:0000000000120000
#00618:1200001200000000
#0061a:0000000000000012
#00714:1200001200120012
#00712:00000012
#00718:1200000012000012
#0071a:0000001200000000
#01212:00140014
#01218:00001312
#01216:0000001200120000
#01214:12
#0121b:0000000000130013
#01112:00140014
#01118:00000012
#01116:1200001200120012
#0111b:0000001313000013
#01518:00001312
#01516:0000001200120000
#01514:0000000000000012
#0151b:0000001300000013
#01512:00140014
#0191b:1300002300131300
#01917:00000013000000000000000000000000
#01912:2300131300002300
#01916:00000000000000000013000000000000
#02016:13000000120000000000120000120012
#0201a:0014
#02018:0000001200001212
#02012:0014
#02217:13
#02218:00000000120000000000120000000012
#02212:0014
#02216:0000001200000012
#0221a:00000000000000001400000000120000
#02214:00000012
#03117:0000000012000012
#0311c:1200000012000012
#03112:0000001200000000
#0281c:12
#02812:0000001200001200
#02817:0000120012000012
#03818:00120000
#0381c:0000002222000000
#03812:2200000000000022
#03817:22
#03810:41
#03917:0000000012000012
#03912:2200000012000012
#0391c:0000001200000000
#03412:1212
#03417:1200001212000000
#0341c:0000000000000012
#03517:1200001212000012
#0351c:0012
#03512:1200000000000012
#03714:0000000000120012
#03716:00000012
#0371c:12000012
#03717:1212
#0401c:1212
#04017:1212
#04012:0000001200000012
#04012:0000000000000012
#0361c:1212
#03617:1200001212000000
#03612:0000000000000012
#05212:23000013
#05216:00131300
#05214:0013000000130013
#0521b:00131313
#05218:0000001300000000
#0521f:21
#05316:13131300
#0531b:13131313
#05312:0013001300130000
#05310:41
#05512:00130013
#0551b:00130013
#05516:1414
#05519:0013001300000000
#0541b:00130013
#05414:0000000000130013
#05412:00130013
#05416:1414
#05419:0013001300000000
#0561b:13000013
#05617:00131300
#05619:0013000000130013
#05612:13131313
#05615:0000001300000000
#06618:1600261316002613
#06615:1319130013191300
#06612:0013000000130000
#0661b:0000001300000013
#06715:1319130013000000
#06712:0013000000130000
#06718:1600261316002600
#0671b:0000001300000000
#06812:1619261316192613
#06818:13131313
#0681b:0013000000130000
#06815:0000001300000013
#06918:13131300
#0691b:0013000000130000
#06915:0000001300000000
#06912:1619261316002600
#06219:13230000
#0621b:0013000000000000
#06217:0000001300000000
#06216:0000000000000013
#06212:0000000000130000
#06214:00000023
#06210:41
#0631b:0013000013000000
#06317:0000001300130000
#06319:00230000
#06312:00000023
#05819:13231323
#0581b:0013000000130000
#05817:0000001300000013
#05919:13231300
#0591b:0013000000002300
#05917:0000001300000000
#05912:0013
#05916:0000000000130000
#06014:13231323
#06012:0013000000130000
#06016:0000001300000013
#06114:13231300
#06112:0013000000002300
#06116:0000001300000000
#0611b:0013
#06117:0000000000130000
#06414:13230000
#06412:0013000000000000
#06416:0000001300000000
#06417:0000000000000013
#0641b:0000000000130000
#06419:00000023
#06512:0013000013000000
#06516:0000001300130000
#06514:00230000
#0651b:00000023
#01612:0000001213000000
#01614:0000120000130000
#01616:0012000012001300
#01618:1200000000120013
#0161c:0000000000000012
#0161a:00000012
#07314:0024001400000000
#0731a:00140000
#07312:1414
#07318:0014002400000000
#07316:24242400
#03252:5252
#03056:00220000
#03052:0052
#0305c:62
#03057:12
#04852:6c
#02152:5300003300005300
#02156:0023000000000000
#02157:0000000000230000
#0215b:43006343
#01752:5300003300005300
#01756:00000023000000000000000000000000
#0175b:4300006300004300
#01757:00000000000000000023000000000000
#04752:53
#04756:00230000
#04256:6363
#04356:63
#04457:5353
#04557:53
#04652:5300000000230000
#04656:0023000063000000
#07252:34
#0725a:0044
#02552:34545454
#0255a:64440044
#02554:0024000000000000
#02556:0000002400000000
#02557:0000000000240000
#02558:0000000000000024
#02456:000000000000000000000000000000000000000000000000000000000000000000000000000000000000000000000000000000000000000000000000000000000000000000000000000000000000000000000000000000000000000000000000000000000000000000000000000000000000000000000000000000000000000000000000000000000000000000000000000000000000000000000000000000000000000000000000000000000000000000000000000000000000000000000000000000000000000000000000000000000000000000000000000000000000000000000000000000000000000000000023000000000000000000000000000000000000000000000000000000000000000000000000000000000000000000000000000000000000000000000000000000000000000000000000000000000000000000000000000000000000000000000000000000000000000000000000000000000000000000000000000000000000000000000000000000000000000000000000000000000000000000000000000000000000000000000000000000000000000000000000000000000000000000000000000000000000000000000000000000000000000000000000000000000000000000000000000000000000000000000000000000000000000000000000000000000000000000000000000000000000000000000000000000000000000000000000000000000000000000000000000000000000000000000000000000000000000000000000000000000000000000000000000000000000000000000000000000000000000000000000000000000000000000000000000000000000000000000000000000000000000000000000000000000000000000000000000000000000000000000000000000000000000000000000000000000000000000000000000000000000000000000000000000000000000000000000000000000000000000000000000000000000000000000000000000000000000000000000000000000000000000000000000000000000000000000000000000000000000000000000000000000000000000000000000000000000000000000000000000000000000000000000000000000000000000000000000000000000000000000000000000000000000000000000000000000000000000000000000000000000000000000000000000000000000000000000000000000000000000000000000000000000000000000000000000000000000000000000000000000000000000000000000000000000000000000000000000000000000000000000000000000000000000000000000000000000000000000000000000000000000000000000000000000000000000000000000000000000000000000000000000000000000000000000000000000000000000000000000000000000000000000000000000000000000000000000000000000000000000000000000000000000000000000000000000000000000000000000000000000000000000000000000000000000000000000000000000000000000000000000000000000000000000000000000000000000000000000000000000000000000000000000000000000000000000000000000000000000000000000000240000000000000000000000000000000000000000000000000000000000000000000000000000000000000000000000000000000000000000000000000000000000000000000000000000000000000000000000000000000000000000000000000000000000000000000000000000000000000000000000000000000000000000000000000000000000000000000000000000000000000000000000000000000000000000000000000000000000000000000000000000000000000000000000000000000000000000000000000000000000000000000000000000000000000000000000000000000000000000000000000000000000000000000000000000000000000000000000000000000000000000000000000000000000000000000000000000000000000000000000000000000000000000000000000000000000000000000000000000000000000000000000000000000000000000000000000000000000000000000000000000000000000000000000000000000000000000000000000000000000000000000000000000000000000000000000000000000000000000000000000000000000000000000000000000000000000000000000000000000000000000000000000000000000000000000000000000000000000000000000000000000000000000000000000000000000000000000000000000000000000000000000000000000000000000000000000000000000000000000000000000000000000000000000000000000000000000000000000000000000000000000000000000000000000000000000000000000000000000000000000000000000000000000000000000000000000000000000000000000000000000000000000000000000000000000000000000000000000000000000000000000000000000000000000000000000000000000000000000000000000000000000000000000000000000000000000000000000000000000000
#0245a:00006464
#02455:0000000000000024
#0245b:63430000
#02457:0023002300000000
#02452:53533400
#02352:34533353
#02356:0000002300230000
#02357:000000000000000000000000000000000000000000000000000000000000000000000000000000000000000000000000000000000000000000000000000000000000000000000000000000000000000000000000000000000000000000000000000000000000000000000000000000000000000000000000000000000000000000000000000000000000000000000000000000000000000000000000000000000000000000000000000000000000000000000000000000000000000000000000000000000000000000000000000000000000000000000000000000000000000000000000000000000000000000000000000000000000000000000000000000000000000000000000000000000000000000000000000000000000000000000000000000000000000000000000000000000000000000000000000000000000000000000000000000000000000000000000000000000000000000000000000000000000000000000000000000000000000000000000000000000000000000000000000000000000000000000000000000000000000000000000000000000000000000000000000000000000000000000000000000000000000000000000000000000000000000000000000000000000000000000000000000000000000000000000000000000000000000000000000000000000000000000000000000000000000000000000000000000000000000000000000000000000000000000000000000000000000000000000000000000000000000000000000000000000000000000000000000000000000000000000000000000000000000000000000000000000000000000000000000000000000000000000000000000000000000000000000000000000000000000000000000000000000000000000000000000000000000000000000000000000000000000000000000000000000000000000000000000000000000000000000000000000000000000023000000000000000000000000000000000000000000000000000000000000000000000000000000000000000000000000000000000000000000000000000000000000000000000000000000000000000000000000000000000000000000000000000000000000000000000000000000000000000000000000000000000000000000000000000000000000000000000000000000000000000000000000000000000000000000000000000000000000000000000000000000000000000000000000000000000000000000000000000000000000000000000000000000000000000000000000000000000000000000000000000000000000000000000000000000000000000000000000000000000000000000000000000000000000000000000000000000000000000000000000000000000000000000000000000000000000000000000000000000000000000000000000000000000000000000000000000000000000000000000000000000000000000000000000000000000000000000000000000000000000000000000000000000000000000000000000000000000000000000000000000000000000000000000000000000000000000000000000000000000000000000000000000000000000000000000000000000000000000000000000000000000000000000000000000000000000000000000000000000000000000000000000000000000000000000000000000000000000000000000000000000000000000000000000000000000000000000000000000000000000000000000000000000000000000000000000000000000000000000000000000000000000000000000000000000000000000000000000000000000000000000000000000000000000000000000000000000000000000000000000000000000000000000000000000000000000000000000000000000000000000000000000000000000000000000000000000000000000000000000000000000000000000000000000000000000000000000000000000000000000000000000000000000000000000000000000000000000000000000000000000000000000000000000000000000000000000000000000000000000000000000000000000000000000000000000000000000000000000000000000000000000000000000000000000000000000000000000000000000000000000000000000000000000000000000000000000000000000000000000000000000000000000000000000000000000000000000000000000000000000000000000000000000000000000000000000000000000000000000000000000000000000000000000000000000000000000000000000000000000000000000000000000000000000000000000000000000000000000000000000000000000000000000000000000000000000000000000000000000000000000000000000000000000000000000000000000000000000000000000000000000000000000000000000000000000000000000000000000000000000000000000000000000000000000000000000000000000000000000000000000000000000000000000000000000000000000000000000000000000000000000000000000000000000000000000000000000000000000000000000
#0235b:00636300
#0235a:00000044
#00154:12
#0055a:12
#01857:23
#0195b:6300004300006300
#01957:00000023000000000000000000000000
#01952:3300005300003300
#01956:00000000000000000023000000000000
#02056:23
#02257:23
#0315c:62
#0285c:62
#02857:00226200
#02852:00000022
#0295c:62
#02957:00226200
#02952:00000052
#03858:00220000
#0385c:0062
#03852:52
#03857:12
#03352:52
#03357:00220000
#03457:52
#03452:0052
#03557:52
#0375c:00000062
#03757:6252
#0405c:6262
#0415c:62
#04157:00220000
#03657:62
#0365c:0062
#05152:0069
#05155:00000059
#0525b:00130013
#0535b:00130013
#05356:0063
#05352:0000000000230000
#05552:00130000
#0555b:00000013
#0545b:00000013
#05452:00130000
#05652:00130013
#05752:00130000
#06655:63636363
#06652:0023000000230000
#06658:0000002300000023
#06755:63636300
#06752:0023000000230000
#06758:0000002300000000
#06858:53535353
#0685b:0023000000230000
#06855:0000002300000023
#06958:53535300
#0695b:0023000000230000
#06955:0000002300000000
#05952:0053
#05956:0000000000230000
#0615b:0063
#06157:0000000000230000
#0635b:0063
#06357:0000000000230000
#06552:0053
#06556:0000000000230000
#0735a:00440000
#07352:3434
#07152:0038000000000000
#07056:0000000000000048
#03952:52
#04957:0012
#002360:0012
#002320:00000022
#006380:0012
#0063c0:00000022
#009350:13230000
#010350:13230000
#011380:13230000
#012380:13230000
#013350:13
#013320:00230000
#014320:13
#014350:00230000
#015380:13
#0153b0:00230000
#0163c0:12
#016360:0000002200000000
#017320:1300002300000000
#017360:00000053000000000000000000000000
#0173b1:0000001300002300
#017371:00000000000000000053000000000000
#017320:00000013
#018370:53
#018320:00230000
#0193b0:1300002300000000
#019370:00000053000000000000000000000000
#019321:0000001300002300
#019361:00000000000000000053000000000000
#0193b0:00000013
#020360:53
#0203b0:00230000
#021320:13230000
#021360:0053000000000000
#0213b0:00001323
#021370:0000000000530000
#021321:00000013
#022371:53
#022321:00230000
#0233b1:13333300
#023371:000000000000000000000000000000000000000000000000000000000000000000000000000000000000000000000000000000000000000000000000000000000000000000000000000000000000000000000000000000000000000000000000000000000000000000000000000000000000000000000000000000000000000000000000000000000000000000000000000000000000000000000000000000000000000000000000000000000000000000000000000000000000000000000000000000000000000000000000000000000000000000000000000000000000000000000000000000000000000000000000000000000000000000000000000000000000000000000000000000000000000000000000000000000000000000000000000000000000000000000000000000000000000000000000000000000000000000000000000000000000000000000000000000000000000000000000000000000000000000000000000000000000000000000000000000000000000000000000000000000000000000000000000000000000000000000000000000000000000000000000000000000000000000000000000000000000000000000000000000000000000000000000000000000000000000000000000000000000000000000000000000000000000000000000000000000000000000000000000000000000000000000000000000000000000000000000000000000000000000000000000000000000000000000000000000000000000000000000000000000000000000000000000000000000000000000000000000000000000000000000000000000000000000000000000000000000000000000000000000000000000000000000000000000000000000000000000000000000000000000000000000000000000000000000000000000000000000000000000000000000000000000000000000000000000000000000000000000000000000000053000000000000000000000000000000000000000000000000000000000000000000000000000000000000000000000000000000000000000000000000000000000000000000000000000000000000000000000000000000000000000000000000000000000000000000000000000000000000000000000000000000000000000000000000000000000000000000000000000000000000000000000000000000000000000000000000000000000000000000000000000000000000000000000000000000000000000000000000000000000000000000000000000000000000000000000000000000000000000000000000000000000000000000000000000000000000000000000000000000000000000000000000000000000000000000000000000000000000000000000000000000000000000000000000000000000000000000000000000000000000000000000000000000000000000000000000000000000000000000000000000000000000000000000000000000000000000000000000000000000000000000000000000000000000000000000000000000000000000000000000000000000000000000000000000000000000000000000000000000000000000000000000000000000000000000000000000000000000000000000000000000000000000000000000000000000000000000000000000000000000000000000000000000000000000000000000000000000000000000000000000000000000000000000000000000000000000000000000000000000000000000000000000000000000000000000000000000000000000000000000000000000000000000000000000000000000000000000000000000000000000000000000000000000000000000000000000000000000000000000000000000000000000000000000000000000000000000000000000000000000000000000000000000000000000000000000000000000000000000000000000000000000000000000000000000000000000000000000000000000000000000000000000000000000000000000000000000000000000000000000000000000000000000000000000000000000000000000000000000000000000000000000000000000000000000000000000000000000000000000000000000000000000000000000000000000000000000000000000000000000000000000000000000000000000000000000000000000000000000000000000000000000000000000000000000000000000000000000000000000000000000000000000000000000000000000000000000000000000000000000000000000000000000000000000000000000000000000000000000000000000000000000000000000000000000000000000000000000000000000000000000000000000000000000000000000000000000000000000000000000000000000000000000000000000000000000000000000000000000000000000000000000000000000000000000000000000000000000000000000000000000000000000000000000000000000000000000000000000000000000000000000000000000000000000000000000000000000000000000000000000000000000000000000000000000000000000000000000000000000000
#023361:0000000000530000
#0233a1:00000024
#023320:00132300
#023360:0000005300000000
#023320:00000013
#024320:33332400
#024360:000000000000000000000000000000000000000000000000000000000000000000000000000000000000000000000000000000000000000000000000000000000000000000000000000000000000000000000000000000000000000000000000000000000000000000000000000000000000000000000000000000000000000000000000000000000000000000000000000000000000000000000000000000000000000000000000000000000000000000000000000000000000000000000000000000000000000000000000000000000000000000000000000000000000000000000000000000000000000000000053000000000000000000000000000000000000000000000000000000000000000000000000000000000000000000000000000000000000000000000000000000000000000000000000000000000000000000000000000000000000000000000000000000000000000000000000000000000000000000000000000000000000000000000000000000000000000000000000000000000000000000000000000000000000000000000000000000000000000000000000000000000000000000000000000000000000000000000000000000000000000000000000000000000000000000000000000000000000000000000000000000000000000000000000000000000000000000000000000000000000000000000000000000000000000000000000000000000000000000000000000000000000000000000000000000000000000000000000000000000000000000000000000000000000000000000000000000000000000000000000000000000000000000000000000000000000000000000000000000000000000000000000000000000000000000000000000000000000000000000000000000000000000000000000000000000000000000000000000000000000000000000000000000000000000000000000000000000000000000000000000000000000000000000000000000000000000000000000000000000000000000000000000000000000000000000000000000000000000000000000000000000000000000000000000000000000000000000000000000000000000000000000000000000000000000000000000000000000000000000000000000000000000000000000000000000000000000000000000000000000000000000000000000000000000000000000000000000000000000000000000000000000000000000000000000000000000000000000000000000000000000000000000000000000000000000000000000000000000000000000000000000000000000000000000000000000000000000000000000000000000000000000000000000000000000000000000000000000000000000000000000000000000000000000000000000000000000000000000000000000000000000000000000000000000000000000000000000000000000000000000000000000000000000000000000000000000000000000000000000000000000000000000000000000000000000000000000000000000000000000000000000000000000000000000000000000000000000000000000000000000000000000000000000000000000000000000000000000000000000000000000000000000000000000000000000000000000000000000000000000000000000000000000000000000000000000000000000000000000000000000000000000000000000000000000000000000000000000000000000000000000000000000000000000000000000000000000000000000000000000000000000000000000000000000000000000000000000000000000000000000000000000000000000000000000000000000000000000000000000000000000000000000000000000000000000000000000000000000000000000000000000000000000000000000000000000000000000000000000000000000000000000000000000000000000000000000000000000000000000000000000000000000000000000000000000000000000000000000000000000000000000000000000000000000000000000000000000000000000000000000000000000000000000000000000000000000000000000000000000000000000000000000000000000000000000000000000000000000000000000000000000000000000000000000000000000000000000000000000000000000000000000000000000000000000000000000000000000000000000000000000000000000000000000000000000000000000000000000000000000000000000000000000000000000000000000000000000000000000000000000000000000000000000000000000000000000000000000000000000000000000000000000000000000000000000000000000000000000000000000000000000000000000000000000000000000000000000000000000000000000000000000000000000000000000000000000000000000000000000000000000000000000000000000000000000000000000000000000000000000000000000000000000000000000000000000000000000000000000000000000000000000000000000000000000000000000000000000000000000000
#024370:0000005300000000
#0243b1:13230000
#024371:0053000000000000
#0243a1:00001434
#024361:0000000000540000
#024351:0000000000000054
#0253a1:34240000
#025341:0054000000000000
#025320:00143434
#025360:0000005400000000
#025370:0000000000540000
#025380:0000000000000054
#026320:24
#0263c1:1222
#026360:0012
#027360:22
#027381:1222
#027320:0012
#028320:22
#0283c1:1222
#028371:00520000
#028370:0012
#028320:00000052
#029370:22
#0293c1:1222
#029371:00520000
#029370:0012
#029320:00000032
#030370:22
#0303c1:1222
#030361:00520000
#030320:0012
#031370:22
#0313c1:12
#031371:0000002200000000
#032321:12
#032371:0000002200000000
#032321:0012
#032371:0000000000000022
#033321:1222
#033371:00520000
#034371:12
#0343c1:0000002200000000
#034321:0012
#034371:0000000000000022
#035371:12
#0353c1:0000002200000000
#036371:12
#036321:0000002200000000
#0363c1:0012
#036371:0000000000000022
#037371:12
#037321:0022
#037370:0012
#0373c0:00000032
#038370:22
#038321:1222
#038381:00520000
#0383c0:0012
#039370:22
#039321:12
#039371:0000002200000000
#0403c1:12
#040371:0000002200000000
#0403c1:0012
#040371:0000000000000022
#0413c1:1222
#041371:00520000
#042361:13
#042321:00230000
#042361:0013
#042321:00000023
#043361:13
#043321:0023
#044371:13
#0443b1:00230000
#044371:0013
#0443b1:00000023
#045371:13
#0453b1:0023
#046321:13230000
#046361:0053000000000000
#046361:00001323
#046321:0000000000530000
#047321:1323
#047361:00530000
#048321:1c
#048371:00520000000000000000000000000000
#049371:0022
#051321:00000000000000001900005222000000
#051350:00000019
#0513c0:00000000000000000000000000520000
#0523c0:22
#053360:00001323
#053320:0000000000530000
#058320:13
#058360:0023000000000000
#058360:00130000
#058320:0000002300000000
#058320:0013
#058360:0000000000230000
#058360:00000013
#058320:0000000000000023
#059320:13
#059360:0023000000000000
#059360:00130000
#059320:0000002300000000
#059320:00001323
#059360:0000000000530000
#0603b0:13
#060370:0023000000000000
#060370:00130000
#0603b0:0000002300000000
#0603b0:0013
#060370:0000000000230000
#060370:00000013
#0603b0:0000000000000023
#0613b0:13
#061370:0023000000000000
#061370:00130000
#0613b0:0000002300000000
#0613b0:00001323
#061370:0000000000530000
#062360:13330000
#062320:0033003300000000
#062350:0023
#062381:0013
#0623b1:0000000000330033
#062371:00000033
#063381:23
#063350:13
#063320:0033003300000000
#063360:00332300
#0633b1:00001323
#063371:0000000000530000
#064371:13330000
#0643b1:0033003300000000
#064381:0023
#064350:0013
#064320:0000000000330033
#064360:00000033
#065350:23
#065381:13
#0653b1:0033003300000000
#065371:00332300
#065320:00001323
#065360:0000000000530000
#066350:13333333
#066320:0033000000330000
#066380:0000003300000033
#067350:33333323
#067320:0033000000530000
#067380:0000003300000000
#068380:13333333
#0683b0:0033000000330000
#068350:0000003300000033
#069380:33333323
#0693b0:0033000000530000
#069350:0000003300000000
