This file was generated by Ched 2.7.0.0.
#TITLE ""
#ARTIST ""
#DESIGNER ""
#DIFFICULTY 0
#PLAYLEVEL
#SONGID ""
#WAVE ""
#WAVEOFFSET 0
#JACKET ""
#REQUEST "ticks_per_beat 480"
#00002: 4
#BPM01: 170
#00008: 01
#TIL00: ""
#VOLUME: ""
#HISPEED 00
#MEASUREHS 00
#0011a:1414
#00212:1414
#00318:1414
#00414:1414
#00418:00000014
#00512:1414
#0061a:1414
#00714:1414
#00818:1414
#00814:00000014
#0091a:1414
#00912:00140014
#00910:41
#01018:1414
#01014:00140000
#01112:1414
#0111a:00140014
#01212:14
#01214:0014
#01218:00000014
#01312:1414
#0131a:00140014
#01414:1414
#01418:00140000
#0151a:1414
#01512:00140014
#0161a:14
#01614:0014
#01618:00000014
#02314:00140024
#02318:2414
#02418:14
#02414:00140000
#02412:00000014
#0241a:0024
#02518:14
#0251a:0014
#02514:00000014
#02512:00240000
#05218:1414
#05214:00140014
#0521f:21
#0531a:14
#05312:00140000
#05310:41
#01818:0014
#01814:00000014
#01810:41
#02012:0014
#0201a:00000014
#0221a:0014
#02212:00000014
#04218:1414
#04214:00140014
#0421f:11
#04414:1414
#04418:00140014
#0461a:1414
#04612:00140014
#0581a:14140000
#05814:00001414
#05918:14
#05914:00140000
#05414:1414
#05418:00140014
#05512:14
#0551a:00140000
#05618:14
#05612:00000014
#05614:00140000
#0561a:0014
#0571a:14
#05716:00140000
#05712:0014
#06012:14140000
#06018:00001414
#06114:14
#06118:00140000
#0621a:14
#06218:00140000
#06212:0014
#06214:00000014
#06210:41
#0631a:14
#06314:00140000
#06412:14
#06414:00140000
#0641a:0014
#06418:00000014
#06512:14
#06518:00140000
#06716:00140000
#06712:14
#06618:00000014
#06612:0014
#06616:00140000
#0661a:14
#0701a:14
#07016:00140014
#07012:0014
#0711a:1414
#07112:00140000
#07116:00000014
#07212:14
#07216:00140014
#0721a:0014
#04318:14
#04514:14
#0471a:14
#02819:1414
#0281a:00140000
#02818:00000014
#02919:14
#0291a:00140000
#02618:00140000
#0261a:14
#02610:41
#02712:00140000
#02714:14
#03613:1414
#03612:00140000
#03614:00000014
#03713:14
#03712:00140000
#03414:00140000
#03412:14
#0351a:00140000
#03518:14
#06916:00140000
#0691a:14
#06814:00000014
#0681a:0014
#06816:00140000
#06812:14
#07312:24
#07316:00240000
#0731a:0024
#03014:24
#03818:24
#03810:41
#04358:54
#04554:64
#0475a:64
#02859:6464
#0285a:00240000
#02858:00000024
#02959:64
#0295a:00240000
#02658:00240000
#0265a:64
#02752:00240000
#02754:64
#03653:5454
#03652:00240000
#03654:00000024
#03753:54
#03752:00240000
#03454:00240000
#03452:54
#0355a:00240000
#03558:54
#02358:14
#02354:00000014
#02552:00140000
#0245a:0014
#04954:0014
#017320:14
#017330:0000003400000000
#017340:00000034
#018340:00240000
#0193a0:14
#019390:0000003400000000
#019380:00000034
#020380:00240000
#021340:14
#021330:0000003400000000
#021320:00000034
#022320:00240000
#0263a0:1424
#026380:00540000
#027340:1424
#027320:00540000
#028390:1434
#0283a0:00540000
#028380:00000054
#029390:3424
#0293a0:00540000
#030340:14
#030320:0034
#031340:34
#031320:0024
#0323a0:14
#032380:0034
#0333a0:34
#033380:0024
#034320:1424
#034340:00540000
#035380:1424
#0353a0:00540000
#036330:1434
#036320:00540000
#036340:00000054
#037330:3424
#037320:00540000
#038380:14
#0383a0:0034
#039380:34
#0393a0:0024
#040320:14
#040340:0034
#041320:34
#041340:0024
#043380:14
#0433a0:0024
#045340:14
#045320:0024
#0473a0:14
#047380:0024
#048340:14
#049340:0024
#0533a0:00001424
#055320:00001424
#0593a0:00001424
#061320:00001424
#063380:00001424
#065340:00001424
#0673a0:00001424
#069320:00001424
