This file was generated by Ched 2.6.4.0.
#TITLE ""
#ARTIST ""
#DESIGNER ""
#DIFFICULTY 0
#PLAYLEVEL
#SONGID ""
#WAVE ""
#WAVEOFFSET 0
#JACKET ""
#REQUEST "ticks_per_beat 480"
#00002: 4
#BPM01: 205
#00008: 01
#TIL00: ""
#HISPEED 00
#MEASUREHS 00
#00418:0000000000000014
#00518:0000000000000014
#00614:0000000000000014
#00714:0000000000000014
#01712:14
#01710:41
#0201a:14
#0851a:14
#08612:14
#0871a:14
#08812:14
#10919:14
#10913:14
#02114:14
#02418:14
#0181a:14
#01912:14
#02218:14
#02314:14
#02918:14
#02910:41
#03012:14
#03118:14
#03212:14
#03612:14
#03718:14
#04014:14
#03412:14
#0351a:14
#03814:14
#03918:14
#03910:41
#04614:14
#0471a:14
#04814:14
#0331a:14
#05114:14
#05218:14
#05518:14
#05614:14
#05912:14
#0601a:14
#06114:14
#06218:14
#06518:2616
#0651f:21
#06618:16
#06610:0041
#06712:16
#06718:0016
#06812:16
#06818:0016
#06912:1616
#07012:16
#07118:16
#07112:0016
#07218:16
#07212:0016
#07318:2616
#07418:16
#07512:16
#07518:0016
#07612:16
#07618:0016
#07712:1616
#07812:16
#07918:16
#07912:0016
#08018:16
#08012:0016
#09118:16
#09112:0016
#09110:41
#09312:1616
#09418:1616
#09512:16
#09518:0016
#09712:0016
#09718:26
#09818:16
#09812:0016
#09918:1616
#10012:16
#10018:0016
#10112:16
#10118:0016
#10212:16
#10218:0016
#10312:1616
#10418:16
#10412:0016
#0531f:11
#0091a:24
#08918:2626
#09012:2626
#04119:00000034
#04218:0034
#04319:00000034
#0441a:0034
#04910:41
#0003a0:0000000000000014
#0013a0:0000000000000024
#002320:0000000000000014
#003320:0000000000000024
#0093a0:14
#016380:24
#025320:14
#025330:00000034
#026340:0034
#027340:34
#027330:00000034
#028320:0024
#0413a0:14
#041390:00000034
#042380:0034
#043380:34
#043390:00000034
#0443a0:0034
#0453a0:24
#0493a0:14
#0503a0:24
#053320:14
#054320:24
#057380:14
#058380:24
#063340:1434
#064340:3424
#081380:14
#082380:24
#083340:14
#084340:24
#092380:1626
#096320:1626
#1053a0:14
#1063a0:24
#107320:14
#108320:24
