This file was generated by Ched 2.6.4.0.
#TITLE ""
#ARTIST ""
#DESIGNER ""
#DIFFICULTY 0
#PLAYLEVEL
#SONGID ""
#WAVE ""
#WAVEOFFSET 0
#JACKET ""
#REQUEST "ticks_per_beat 480"
#00002: 4
#BPM01: 205
#00008: 01
#TIL00: ""
#HISPEED 00
#MEASUREHS 00
#0531f:11
#0531b:1300001300000000
#05316:0000002400000024
#0531a:00000024
#05312:24
#1081b:0013
#10816:0000000000000012
#10815:13130000
#10818:0000001300000000
#10812:0013000000000000
#10712:0013
#10715:0000001300000000
#10718:1300130000000013
#1071b:0013000000000000
#10916:0012000000000000
#10918:12
#10615:1300130000000013
#10618:0013
#1061b:0013000000000000
#0851b:13001323
#08518:0000230000000013
#08512:0000230000130000
#08515:00000023
#08412:0013
#08418:13130000
#08415:0000001300000000
#0841b:0013000000000000
#0831b:0013
#08318:0000001300000000
#08315:1300130000000013
#08312:0013000000000000
#08218:1300130000000013
#08215:0013
#08212:0013000000000000
#03618:0013000013000000
#03615:00000013
#03612:00130000
#00418:0000000000120000
#00414:0012
#0041a:00120000
#00416:0012000000000000
#0041b:0000000000000013
#00412:0000000000000013
#00314:0012000000000012
#00318:00120000
#00316:0012
#0031a:0000000000120000
#00212:0000000000000012
#00216:0000000000120000
#0021a:0012
#00214:00120000
#00218:0012000000000000
#0011a:0012000000000012
#00114:0000000000120000
#00118:0012
#00116:00120000
#0871b:0000000013000013
#08715:0000000000130000
#08718:13230023
#08712:00230023
#08615:0000230000000013
#08612:13001323
#0861b:0000230000130000
#08618:00000023
#08815:13000000230000000000001300000000
#0881b:00231300
#08818:0000000000131300
#08812:0013
#07918:0013130000130000
#07915:00000013000000001300000000001300
#0791b:13
#07912:1300001300000000
#0801b:0013000013000000
#08018:0000130000000013
#08012:0013
#08015:0000001300000000
#07818:0013230000000000
#07815:13230000
#07712:0000000000000013
#0771b:0000000000130000
#07718:0013000013000000
#07715:1300001300000000
#07612:0000000000000013
#07615:00131300
#0761b:0013000013000000
#07618:0000001300000000
#07015:0013230000000000
#07018:13230000
#0691b:0000000000000013
#06912:0000000000130000
#06915:0013000013000000
#06918:1300001300000000
#0681b:0000000000000013
#06818:00131300
#06812:0013000013000000
#06815:0000001300000000
#07512:1300000013000013
#0751b:1300001300130000
#07518:00000013000000000000000000000000
#07515:0013130000000000
#0571b:0000131300000000
#05712:13
#05716:2400002400000024
#0571a:00000024
#03818:13130013
#03815:0013000000000013
#03812:0013
#0381b:0013
#0391b:1300001300000000
#03918:00131313
#03912:1300000000000013
#03915:0013000000130000
#03910:41
#0231b:1300001300000013
#02312:1300001300000000
#02315:00131313
#02318:0013000000130000
#01915:00131313
#01912:1300001300000024
#01918:0013000000130000
#0191b:1300001300000000
#0191a:0000000000000024
#07212:0013000013000000
#07215:00130013
#0721b:0013
#07218:0000001300000000
#07112:13
#07115:0013130000130000
#07118:00000013000000001300000000001300
#0711b:1300001300000000
#0671b:1300000013000013
#06712:1300001300130000
#06715:00000013000000000000000000000000
#06718:0013130000000000
#06012:1313
#0601b:1300000013000013
#06015:0000001300000000
#06018:00130013
#05918:1300001300000013
#05915:00001313
#05912:00130000
#0591b:00130000
#04612:0013
#04618:0000001300000013
#04615:13000013
#0461b:0013130000000000
#04012:00000013
#04015:00130000
#0401b:0013
#04018:0013000000000000
#03318:0000000013000013
#03315:00130013
#0331b:13
#03312:23
#0241b:00000013
#02412:0013
#02415:0013001300000000
#02418:00130000
#01715:0000000013000013
#01718:00130013
#01712:13
#0171b:23
#01710:41
#0521b:00131300
#05218:0000001300000000
#05215:00131300
#05212:0000001300000000
#05213:13
#06215:0000130013000013
#06218:0000000013000013
#0621b:13000013
#06212:0000001300001300
#06112:00131300
#06118:1300000000000013
#06115:0000001300000000
#0611b:00000013
#02012:00240014
#02016:00140000000014000000140000000000
#0201a:0024
#00815:0000000000130000
#0081b:0013
#00818:0013000000000000
#00712:0000000000130013
#0071b:0013000000000013
#00718:0013
#00612:0000000013000013
#0061b:0000000000000013
#00618:0000000000130000
#00615:0013000000000000
#10412:0013000013000000
#1041b:1313
#10415:0000130000000013
#10418:0000001300000000
#10318:1300130000000013
#10312:1300001300001300
#10315:00000013000000000000130000000000
#1031b:0013000013000000
#10015:1300001300130013
#10012:0013
#1001b:0013000000130000
#10018:00131300
#09912:1300130000000013
#09918:00000013000000000000000013000000
#0991b:1300001300130000
#09915:0013000013000000
#09615:0000001300130000
#09612:1313
#09618:0000130000000013
#0961b:0013000000001300
#09515:1300130000000013
#0951b:1300001300001300
#09518:00000013000000000000130000000000
#09512:0013000013000000
#09115:00000013000000000000000013000000
#09112:2300001300130000
#0911b:2300130000000013
#09118:0013000013000000
#09110:41
#09218:1300001300130013
#09212:0013000000130000
#09215:00131300
#0921b:0013
#0811b:1313
#08112:13
#08115:0000001300000013
#08118:00130000
#10512:1313
#1051b:13
#10518:0000001300000013
#10515:00130000
#09315:1300001300130000
#0931b:0000000000130013
#09312:0013000000000013
#09318:0013000013000000
#10118:1300001300130000
#10112:0000000000130013
#1011b:0013000000000013
#10115:0013000013000000
#09715:0000000013000013
#09718:0000001300130000
#0971b:0023000000000013
#09712:2300001300000000
#09812:00130000
#0981b:00130000
#09815:0013000000001300
#09818:1300000000000013
#10215:0013001300000000
#10218:1300001300000000
#1021b:00230000
#10212:00230000
#09418:0013001300000000
#09415:1300001300000000
#09412:00230000
#0941b:00230000
#09015:0000000000000013
#09018:0000000024241300
#09012:0000000024240000
#0901a:2424000000000000
#09014:2424000000000000
#07412:00130000
#0741b:00130000
#07418:0013000000001300
#07415:1300000000000013
#0661b:00130000
#06612:00130000
#06615:0013000000001300
#06618:1300000000000013
#06610:0041
#07312:2300000000000013
#0731b:0000000000130000
#07318:0023000013000000
#07315:0000001300000000
#06418:00000013
#06412:0015151515000000
#06419:0015151515000000
#0651b:2300000000000013
#06512:0000000000130000
#06515:0023000013000000
#06518:0000001300000000
#0651f:21
#02112:0000130000000013
#0211b:1313
#02115:13000013
#02118:0000000000130000
#03515:0013001300000013
#0351b:13000000000000000013000000000000
#03512:13000000000000000013000000000000
#03518:0000131300000000
#03513:0000000000330000
#0351a:0000000000330000
#0371b:0000130000000013
#03712:1313
#03718:13000013
#03715:0000000000130000
#0471b:1300000000130013
#04712:0000001300000000
#04715:00130013
#04718:0013000000000000
#03112:1300000000130013
#0311b:0000001300000000
#03118:00130013
#03115:0013000000000000
#03212:0013
#0321b:0013000013000000
#03215:0000001300000000
#03218:00130000
#0481b:0013
#04812:0013000013000000
#04818:0000001300000000
#04815:00130000
#04318:0000131300000000
#0431b:0013
#04312:1300001400001300
#04315:0013000000130013
#0431a:14000014
#0441b:00130013
#04418:1313000013000000
#04415:0000001300001300
#04412:0014000013000000
#04115:0000131300000000
#04112:14001314
#0411b:13000013
#04118:0013000000130013
#0411a:0000001400000000
#04212:00130013
#04215:1313000013000000
#04218:0000001300001300
#0421b:0013
#0421a:0014000000000000
#05612:0013
#05615:0000001300000013
#05618:00000013
#0561b:0000130000130000
#05614:00003333000000000000000000000000
#05613:00330000000000000000000000000000
#0341b:13000013
#03412:0013000000130000
#03415:00131300
#03418:0000001300000000
#03015:0000001300000013
#03018:13000013
#03012:0013130000000000
#0301b:0013
#02215:13130013
#02218:0013001300000013
#0221b:0013
#0181b:0013000000130000
#01812:13000013
#01818:00131300
#01815:0000001300000000
#0291b:1300000000000013
#02918:0000001300001300
#02915:0000130000130000
#02912:1313
#02919:00000033000000000000000000000000
#02910:41
#04512:1300000000000013
#04515:0000001300001300
#04518:0000130000130000
#0451b:1313
#04514:00000033000000000000000000000000
#06314:0000000000000013
#06319:0000000000000013
#06312:0000130013130000
#0631b:0000130013130000
#05815:0000000000000013
#0581b:13000013
#05812:2400131300001300
#0581a:0000002400000000
#05518:0000130000000013
#05515:0000001300001300
#05519:00000000000000000000333300000000
#0551a:00000000000000000033000000000000
#05514:00003333000000000000000000000000
#05513:00330000000000000000000000000000
#05418:0000000000000013
#05415:00000013
#05412:1300001300000000
#05416:0000002400000000
#0541a:24
#05116:0000001400000014
#0511a:00130014
#05112:1414
#05016:0000002400000014
#0501a:00000014
#0501b:1300001300000000
#05012:24
#04912:1300001300002400
#04916:0000002400000024
#0491a:24
#04910:41
#02815:1313000013000000
#02812:00000013
#02818:0000001300001300
#0281b:0013
#0281a:0014000000000000
#02715:0000131300000000
#0271b:13000013
#02718:0000000000130000
#02712:14000014
#0271a:0000001400000000
#02618:1313000013000000
#0261b:00000013
#02615:0000001300001300
#02612:0014000013000000
#02512:1300001400001300
#02518:0000131300000000
#02515:0000000000130000
#0251a:14000014
#01614:00000013
#01613:0013
#01619:00000013
#0161a:0013
#01612:00130000
#0161b:00130000
#0051b:0000000000130013
#00512:0013000000000013
#00515:0013
#0001c:0000000000000012
#08918:0000000024240000
#08912:0000000024240000
#0891a:2424000000000000
#08914:2424000000000000
#0091b:23
#05258:0000005300001300
#05252:0000005300001300
#0525b:00636300
#05255:00636300
#0705b:0013
#07052:0013
#07058:00530000
#07055:00630000
#09855:0013
#09858:0013
#09852:00530000
#0985b:00630000
#1025b:00634300
#10252:00533300
#10258:0000002300000000
#10255:0000002300000000
#09452:00533300
#0945b:00634300
#09455:0000002300000000
#09458:0000002300000000
#07852:0013
#0785b:0013
#07855:00630000
#07858:00530000
#07455:0013
#07458:0013
#07452:00530000
#0745b:00630000
#06658:0013
#06655:0013
#0665b:00630000
#06652:00530000
#06352:33
#0635b:43
#0205a:0064
#02052:00540000
#02056:00240000000024000000240000000000
#0975b:0043000000000000
#09752:33
#09758:0000000000130000
#07358:0013000000000000
#07352:13
#0735b:0000000000130000
#06555:0013000000000000
#0655b:13
#06552:0000000000130000
#0195a:0000000000000064
#01955:0023
#01952:0000005300000000
#0195b:0000001300000000
#1085b:0063
#10752:0053
#08452:0053
#0835b:0063
#03658:0053
#03652:00530000
#07958:0000000000530000
#07955:0000000000000063
#0775b:0000000000130000
#07758:0013000000000000
#06952:0000000000130000
#06955:0013000000000000
#07655:0063
#0765b:0063
#07552:0000000000000053
#0755b:0000000000630000
#06858:0053
#06852:0053
#0395b:1300006300000000
#03958:0023
#03952:0000000000000053
#02352:1300005300000000
#0235b:6300000000000023
#02355:0023
#02358:0023000000000000
#0805b:0013
#08052:0013
#06052:0013
#0605b:1300000000000023
#06058:00000053
#04652:0013
#04658:0000002300000000
#04655:23
#0465b:00630000
#03358:0000000053000053
#03355:00630000
#0335b:63
#01755:0000000063000063
#01758:00530000
#01752:53
#06255:0000630063000023
#06258:0000000053000023
#0625b:63000063
#06252:0000002300005300
#06152:00535300
#06158:5300000000000023
#06155:0000002300000000
#0615b:00000063
#10452:0013
#1045b:2313
#10358:0000000000000053
#10352:00000023
#10355:0000000000630000
#10055:2300000000230000
#10052:0053
#1005b:0000000000230000
#10058:0053
#09952:0000000000000053
#09958:00000023
#0995b:0000000000630000
#09655:0000000000230000
#09652:2353
#09658:0000000000000023
#0965b:00000063
#09555:0000000000000063
#0955b:00000023
#09558:0000000000530000
#09155:00000023
#09152:0000000000530000
#0915b:0000000000000063
#09258:2300000000230000
#09252:0000000000230000
#09255:0063
#0925b:0063
#08258:00230000
#0815b:0063
#08152:53
#10655:00230000
#10552:0053
#1055b:63
#10158:0000000000130000
#10155:0013000000000000
#09355:0000000000130000
#09358:0013000000000000
#07155:0000000000630000
#07158:0000000000000053
#0675b:0000000000000063
#06752:0000000000530000
#07255:00000063
#06458:00000053
#02452:0053
#02152:0000530000000053
#0215b:23
#03555:0000006300000063
#0355b:00000000000000000023000000000000
#03552:00000000000000000023000000000000
#03558:0000005300000000
#0375b:0000630000000063
#03752:23
#04055:00230000
#0405b:0063
#0475b:0000000000000063
#04752:0000005300000000
#03152:0000000000000053
#0315b:0000006300000000
#03252:0053
#0325b:0063
#0485b:0063
#04852:0053
#04358:0000005300000000
#0435b:0023
#04352:5300001400005300
#04355:0023000000000023
#0435a:14000014
#0445b:00230000
#04458:0053000000000000
#04452:0014000000000000
#04155:0000006300000000
#04152:14002314
#0415b:63000063
#04158:0023000000000023
#0415a:0000001400000000
#04252:00230000
#04255:0063000000000000
#0425a:0014000000000000
#05652:0023
#05655:0000006300000000
#03858:23
#03852:0013
#0385b:0013
#0345b:23000013
#03452:0000000000230000
#03455:0063
#03055:0000002300000000
#03058:23
#03052:00530000
#0305b:0013
#02255:23
#0225b:0013
#0185b:0000000000230000
#01852:23000013
#01858:0053
#0295b:0000000000000063
#04552:0000000000000053
#05955:0013
#05958:13
#05852:0000001300000000
#0585b:13
#0575b:0000001300000000
#05752:13
#05452:1300001300000000
#0535b:1300001300000000
#0505b:1300001300000000
#04952:1300001300000000
#02855:0063000000000000
#0285a:0014000000000000
#02755:0000006300000000
#0275b:23000023
#02752:14000014
#0275a:0000001400000000
#02658:0053000000000000
#02652:0014000000000000
#02552:2300001400002300
#02558:0000005300000000
#0255a:14000014
#000340:0000000000000012
#001340:0022000000000000
#001340:0000000000000012
#002340:0022000000000000
#0023a0:0000000000000012
#0033a0:0022000000000000
#0033a0:0000000000000012
#0043a0:0022000000000000
#005380:00132300
#0063b0:00132300
#007350:00132300
#008320:00132300
#0093b0:13
#012380:000000000000000000000000000000000000000000000000000000000000000000000000000000000000000000000000000000000000000000000000000000000000000000000000000000000000000000000000000000000000000000000000000000000000000000000000000000000000000000000000000000000000000000000000000000000000000000000000000000000000000000000000000000000000000000000000000000000000000000000000000000000000000000000000000000000000000000000000000000000000000000000000000000000000000000000000000000000000000000000000000000000000000000000000000000000000000000000000000000000000000000000000000000000000000000000000000000000000000000000000000000000000000000000000000000000000000000000000000000000000000000000000000000000000000000000000000000000000000000000000000000000000000000000000000000000000000000000000000000000000000000000000000000000000000000000000000000000000000000000000000000000000000000000000000000000000000000000000000000000000000000000000000000000000000000000000000000000000000000000000000000000000000000000000000000000000000000000000000000000000000000000000000000000000000000000000000000000000000000000000000000000000000000000000000000000000000000000000000000000000000000000000000000000000000000000000000000000000000000000000000000000000000000000000000000000000000000000000000000000000000000000000000000000000000000000000000000000000000000000000000000000000000000000000000000000000000000000000000000000000000000000000000000000000000000000000000000000000000000000000000000000000000000000000000000000000000000000000000000000000000000000000000000000000000000000000000000000000000000000000000000000000000000000000000000000000000000000000000000000000000000000000000000000000000000000000000000000000000000000000000000000000000000000000000000000000000000000000000000000000000000000000000000000000000000000000000000000000000000000000000000000000000000000000000000000000000000000000000000000000000000000000000000000000000000000000000000000000000000000000000000000000000000000000000000000000000000000000000000000000000000000000000000000000000000000000000000000000000000000000000000000000000000000000000000000000000000000000000000000000000000000000000000000000000000000000000000000000000000000000000000000000000000000000000000000000000000000000000000000000000000000000000000000000000000000000000000000000000000000000000000000000000000000000000000000000000000000000000000000000000000000000000000000000000000000000000000000000000000000000000000000000000000000000000000000000000000000000000000000000000000000000000000000000000000000000000000000000000000000000000000000000000000000000000000000000000000000000000000000000000000000000000000000000000000000000000000000000000000000000000000000000000000000000000000000000000000000000000000000000000000000000000000000000000000000000000000000000000000000000000000000000000000000000000000000000000000000000000000000000000000000000000000000000000000000000000000000000000000000000000000000000000000000000000000000000000000000000000000000000000000000000000000000000000000000000000000000000000000000000000000000000000000000000000000000000000000000000000000000000000000000000000000000000000000000000000000000000000000000000000000000000000000000000000000000000000000000000000000000000000000000000000000000000000000000000000000000000000000000000000000000000000000000000000000000000000000000000000000000000000000000000000000000000000000000000000000000000000000000053000000000000000000000000000000000000000000000000000000000000000000000000000000000000000000000000000000000000000000000000000000000000000000000000000000000000000000000000000000000000000000000000000000000000000000000000000000000000000000000000000000000000000000000000000000000000000000000000000000000000000000000000000000000000000000000000000000000000000000000000000000000000000000000000000000000000000000000000000000000000000000000000000000000000000000000000000000000000000000000000
#012350:0000000000000053
#016320:23
#009351:1300000033330000
#009321:0000330000000033
#010351:0033330000000033
#010321:0000000033330000
#011321:0033330000000033
#011351:0000000033330000
#012351:000000000000000000000000000000000000000000000000000000000000000000000000000000000000000000000000000000000000000000000000000000000000000000000000000000000000000000000000000000000000000000000000000000000000000000000000000000000000000000000000000000000000000000000000000000000000000000000000000000000000000000000000000000000000000000000000000000000000000000000000000000000000000000000000000000000000000000000000000000000000000000000000000000000000000000000000000000000000000000000000330000000000000000000000000000000000000000000000000000000000000000000000000000000000000000000000000000000000000000000000000000000000000000000000000000000000000000000000000000000000000000000000000000000000000000000000000000000000000000000000000000000000000000000000000000000000000000000000000000000000000000000000000000000000000000000000000000000000000000000000000000000000000000000000000000000000000000000000000000000000000000000000000000000000000000000000000000000000000000000000330000000000000000000000000000000000000000000000000000000000000000000000000000000000000000000000000000000000000000000000000000000000000000000000000000000000000000000000000000000000000000000000000000000000000000000000000000000000000000000000000000000000000000000000000000000000000000000000000000000000000000000000000000000000000000000000000000000000000000000000000000000000000000000000000000000000000000000000000000000000000000000000000000000000000000000000000000000000000000000000000000000000000000000000000000000000000000000000000000000000000000000000000000000000000000000000000000000000000000000000000000000000000000000000000000000000000000000000000000000000000000000000000000000000000000000000000000000000000000000000000000000000000000000000000000000000000000000000000000000000000000000000000000000000000000000000000000000000000000000000000000000000000000000000000000000000000000000000000000000000000000000000000000000000000000000000000000000000000000000000000000000000000000000000000000000000000000000000000000000000000000000000000000000000000000000000000000000000000000000000000000000000000000000000000000000000000000000000000000000000000000000000000000000000000000000000000000000000000000000000000000000000000000000000000000000000000000000000000000000000000000000000000000000000000000000000000000000000000000000000000000000000000000000000000000000000000000000000000000000000000000000000000000000000000000000000000000000000000000000000000000000000000000000000000000000000000000000000000000000000000000000000000000000000000000000000000000000000000000000000000000000000000000000000000000000000000000000000000000000000000000000000000000000000000000000000000000000000000000000000000000000000000000000000000000000000000000000000000000000000000000000000000000000000000000000000000000000000000000000000000000000000000000000000000000000000000000000000000000000000000000000000000000000000000000000000000000000000000000000000000000000000000000000000000000000000000000000000000000000000000000000000000000000000000000000000000000000000000000000000000000000000000000000000000000000000000000000000000000000000000000000000000000000000000000000000000000000000000000000000000000000000000000000000000000000000000000000000000000000000000000000000000000000000000000000000000000000000000000000000000000000000000000000000000000000000000000000000000000000000000000000000000000000000000000000000000000000000000000000053000000000000000000000000000000000000000000000000000000000000000000000000000000000000000000000000000000000000000000000000000000000000000000000000000000000000000000000000000000000000000000000000000000000000000000000000000000000000000000000000000000000000000000000000000000000000000000000000000000000000000000000000000000000000000000000000000000000000000000000000000000000000000000000000000000000000000000000000000000000000000000000000000000000000000000000000000000000000000000000000
#012321:0000000033330000
#012381:0000000000000033
#0133b1:0033330000000033
#013381:0000000033330000
#014381:0033330000000033
#0143b1:0000000033330000
#0153b1:0033330000000000
#015381:0000000033330000
#0163b1:23
#017321:13
#017351:00230000
#017380:00130000
#0173b0:0023
#017351:0013
#017321:00000023
#017351:0000000000000013
#018321:53
#018351:0023000000000000
#018381:00001323
#0183b1:0000000000530000
#019321:0000001300230000
#019351:0053
#0193a1:0000000000000014
#020361:00540000000000000000000000000000
#0203a1:00240000
#020320:00142400
#020360:0000005400000000
#0203a1:00001424
#020361:0000000000540000
#0213b1:13
#021381:00230000
#021320:00130000
#021350:0023
#021320:0000000000000013
#022350:53
#022320:0023000000000000
#0233b0:13230000
#023380:0053000000000000
#023320:0000001300230000
#023350:0053
#0233b0:0000000000000013
#024380:0023000000000000
#024320:0013
#024350:00000023
#025320:13
#025350:00230000
#025380:0000001300000000
#0253b0:0000000000230000
#025320:00000013
#026350:23
#026380:0013000000000000
#0263b0:0000002300000000
#0273b0:13
#027380:00230000
#027350:0000001300000000
#027320:0000000000230000
#0273b0:00000013
#028380:23
#028350:0013000000000000
#028320:0000002300000000
#0293b0:0013000000000000
#029390:00000033000000000000000000000000
#029380:00230000
#0293b0:0000000000000013
#030380:53
#0303b0:0023000000000000
#030320:00132300
#030350:0000005300000000
#0313b0:0000001300000000
#031380:0000000000230000
#031320:0000000000000013
#032350:0023000000000000
#032320:0013
#032350:00000023
#0323b1:0013
#032381:00000023
#0333b1:13
#033381:00230000
#033350:00130000
#033320:0023
#033381:0013
#0333b1:00000023
#033381:0000000000000013
#0343b1:53
#034381:0023000000000000
#034351:00001323
#034321:0000000000530000
#035381:0000001300002300
#0353b1:00000000000000000053000000000000
#0353a1:0000000000330000
#035350:0000001300002300
#035320:00000000000000000053000000000000
#035330:0000000000330000
#035350:0000000000000013
#036320:0023000000000000
#036320:00130000
#036350:0023
#036381:0013
#0363b1:00000023
#037321:13
#037351:00230000
#0373b0:00130000
#037380:0023
#0373b0:0000000000000013
#038380:53
#0383b0:0023000000000000
#0393b0:0000001300230000
#039380:0053
#039320:0000000000000013
#040350:0023000000000000
#040350:00130000
#040320:0023
#0403b1:0013
#040381:00000023
#0413b1:13230000
#041381:0053000000000000
#041351:0000001300230000
#041321:0053
#0413b1:00000013
#041381:0000000000000053
#0423b1:23
#042351:0013002300000000
#042321:00530000
#043321:13230000
#043351:0053000000000000
#043381:0000001300230000
#0433b1:0053
#043321:00000013
#043351:0000000000000053
#044321:23
#044381:0013002300000000
#0443b1:00530000
#045321:0013000000000000
#045341:00000033000000000000000000000000
#045351:00230000
#045321:0000000000000013
#046351:53
#046321:0023000000000000
#0463b1:00132300
#046381:0000005300000000
#047321:0000001300000000
#047351:0000000000230000
#0473b1:0000000000000013
#048381:0023000000000000
#0483b1:0013
#048381:00000023
#048320:0013
#048350:00000023
#0523b0:00133300
#052380:0000003300002300
#052351:00133300
#052321:0000003300002300
#055321:13
#055331:00330000000000000000000000000000
#055341:00003333000000000000000000000000
#055351:00230000
#0553b1:0013
#0553a1:00000000000000000033000000000000
#055391:00000000000000000000333300000000
#055381:00000023
#056321:13
#056331:00330000000000000000000000000000
#056341:00003333000000000000000000000000
#056351:00230000
#056351:0000001300230000
#056321:0053
#060381:00000013
#0603b1:0000000000000053
#061381:3300000000000053
#0613b1:00333333
#0623b1:33000033
#062381:0000330033000053
#0633b1:23
#061320:00133300
#061350:0000005300003300
#062350:3300330033000053
#062320:0000005300003300
#063320:23
#064380:00000013
#0653b0:23
#0663b0:00130000
#066380:0023
#066321:00130000
#066351:0023
#067321:0000000000130000
#067351:0000000000000023
#0673b0:0000000000000013
#068380:0023000000000000
#068380:0013
#0683b0:00000023
#068321:0013
#068351:00000023
#070381:00130000
#0703b1:0023
#070350:00130000
#070320:0023
#071350:0000000000130000
#071320:0000000000000023
#071381:0000000000000013
#0723b1:0023000000000000
#072351:00000013
#073321:23
#074321:00130000
#074351:0023
#0743b0:00130000
#074380:0023
#0753b0:0000000000130000
#075380:0000000000000023
#075321:0000000000000013
#076351:0023000000000000
#076351:0013
#076321:00000023
#0763b0:0013
#076380:00000023
#078350:00130000
#078320:0023
#078381:00130000
#0783b1:0023
#079381:0000000000130000
#0793b1:0000000000000023
#079350:0000000000000013
#080320:0023000000000000
#081320:13
#081350:00230000
#0813b0:0013
#081380:0000000000000023
#082380:00130000
#0823b0:0023
#0833b0:0013
#083380:0000000000000023
#084320:0013
#085350:23
#091320:0000000000130023
#091350:00000053
#0913b1:0000000000000013
#092381:53
#0923b1:0023000000000000
#0923b1:00001323
#092381:0000000000530000
#092350:00001323
#092320:0000000000530000
#094320:00132300
#094350:0000005300000000
#0943b1:00132300
#094381:0000005300000000
#095381:0000000000130023
#0953b1:00000053
#095350:0000000000000013
#096320:53
#096350:0023000000000000
#096320:00001323
#096350:0000000000530000
#0963b1:00000013
#096381:0000000000000053
#0973b1:23
#098321:00130000
#098351:0023
#0983b0:00130000
#098380:0023
#0993b0:0000000000130023
#099380:00000053
#099321:0000000000000013
#100351:53
#100321:0023000000000000
#100321:00001323
#100351:0000000000530000
#100380:00001323
#1003b0:0000000000530000
#1023b0:00132300
#102380:0000005300000000
#102321:00132300
#102351:0000005300000000
#103351:0000000000130023
#103321:00000053
#103380:0000000000000013
#1043b0:53
#104380:0023000000000000
#1053b0:13
#105380:00230000
#105320:0013
#105350:0000000000000023
#106350:00130000
#106320:0023
#107320:0013
#107350:0000000000000023
#1083b0:0013
#108380:0000000000000022
