This file was generated by Ched 2.6.4.0.
#TITLE ""
#ARTIST ""
#DESIGNER ""
#DIFFICULTY 0
#PLAYLEVEL
#SONGID ""
#WAVE ""
#WAVEOFFSET 0
#JACKET ""
#REQUEST "ticks_per_beat 480"
#00002: 4
#BPM01: 205
#00008: 01
#TIL00: ""
#HISPEED 00
#MEASUREHS 00
#01612:00130000
#01615:0013
#01618:00000013
#01718:0000130000000013
#01712:00130000
#01715:2313
#0171b:23
#01710:41
#01818:0000001300000000
#01815:00131300
#0191b:13
#01918:00130013
#01912:0000001300000024
#01915:0013000000000000
#02112:0013
#0211b:1300000000130000
#02115:00000013
#02118:0000000000000013
#02215:0000130000000013
#02218:0000001300001300
#02212:0013
#02318:00000013
#02312:0000001300000000
#0231b:13
#02315:0000000000000013
#02418:00131300
#02415:0000001300000000
#02512:14
#02513:0000001400000000
#02518:00130000
#02514:00000014
#02519:0000000000130000
#02615:0014000013000000
#0261a:13
#0261b:0000001313000000
#02612:00000013
#02618:00000013
#0291b:0013000000000013
#02912:1313
#02915:00130013
#02918:0000001300130000
#02910:41
#0301b:00000013
#03016:0000000000000013
#03015:00130000
#03119:13
#03114:0013000000000000
#03117:00130000
#03118:00000013
#03112:0000001300000000
#03115:0000000000000013
#03218:00130000
#03215:0000001300000000
#0321b:0013
#05018:24000014
#05014:0000002400000014
#05118:1400001400001400
#05115:00130000
#05114:0000000014000014
#05218:1313
#0521b:00130000
#05215:00130000
#05212:0013
#05213:0000003300000000
#05219:0000003300000000
#05615:00130013
#05612:13
#0561b:0013000000000000
#05618:0000001300000013
#05415:00000013
#05418:0000002400000013
#05414:24
#05518:0000130000000013
#05515:0000001300001300
#05512:13
#0551b:0013
#05918:1300001300000000
#05915:0000000013000013
#05912:00130000
#0591b:00000013
#0581b:00000013
#05815:0000000000000013
#0581a:24
#05812:0000002400000000
#0631b:0000130000000013
#06312:0000130000000013
#06318:0013
#06315:0000000000130000
#0651b:0000000000000013
#06512:0000001300000000
#06518:0023000013000000
#06515:2300000000130000
#0651f:21
#06718:00131300
#06712:0000001300130000
#06715:0013000000000013
#0671b:13
#06818:00131300
#06815:0000001300000013
#07117:0013000000000000
#07114:00130000
#07119:0000001300000000
#07116:0013
#07118:0000000000000013
#0711b:0000000000130000
#07112:13
#07212:00130000
#07215:0000001300001300
#07218:0013
#06612:00130000
#06615:1300000000000013
#06618:0013000000001300
#06610:0041
#08018:0000001300000013
#0801b:00130000
#08015:0013
#08118:0000001300000000
#08112:13
#08115:0013
#08218:13
#08215:0013000000000000
#08212:0000000000000013
#0821b:00130000
#0831b:1300001300000013
#08315:0013000013000000
#08318:00130000
#08515:13001323
#08512:00130000
#0851b:13
#08518:0000230000130000
#09015:00000013
#09018:0000000000000013
#09012:2424
#0901a:0024000000240000
#09215:00130000
#09218:0000001300000000
#0921b:0000000000000013
#09212:0013
#09315:1300000000130000
#09318:0013000013000000
#0931b:0000000000000013
#09312:0000001300000000
#09415:13
#09418:0013000000000000
#09412:00230000
#09518:1313
#09515:0013000000130000
#0951b:00130000
#09512:0000001300000013
#09618:00130000
#09615:0000001300000000
#0961b:0013
#09715:0000001300000000
#09718:0000000013000013
#09712:2300000000130000
#0971b:0023000000000000
#09815:1300000000000013
#0981b:0013000000000000
#09812:00130000
#09818:00000013
#06118:13
#0611b:00000013
#06115:0013
#06112:00130000
#06018:1300001300000000
#06012:00130000
#06015:0013
#0601b:00000013
#06918:1300001300000000
#06912:0013000000000000
#06915:0000000013000013
#0691b:0000000000130000
#07018:13230000
#07012:0013000000000000
#02715:14
#02714:0000001400000000
#0271b:00130000
#02713:00000014
#0271a:0000000000130000
#03415:0000001300000000
#03418:00131300
#03512:13
#03515:00130013
#0351b:0000001300000000
#03518:0013000000000013
#0371b:0013
#03712:1300000000130000
#03718:00000013
#03715:0000000000000013
#03915:13000013
#0391b:0000001300000000
#03918:0013000000000013
#03912:00130000
#03910:41
#04512:0013000000000013
#0451b:1313
#04518:00130013
#04515:0000001300130000
#04612:00000013
#04617:0000000000000013
#04618:00130000
#04714:13
#04719:0013000000000000
#04716:00130000
#04715:00000013
#0471b:0000001300000000
#04718:0000000000000013
#04815:00130000
#04818:0000001300000000
#04812:0013
#04015:00130000
#04012:0013
#03315:0000130000000013
#0331b:00130000
#03318:2313
#03312:23
#03812:00000013
#0381b:0000000000000013
#03818:00130000
#03615:00130000
#06218:13
#06215:0013
#06212:00130013
#0621b:00000013
#06418:0014001400001300
#06414:00141400
#08618:13001323
#0861b:00130000
#08612:13
#08615:0000230000130000
#08715:13001323
#08712:00130000
#0871b:13
#08718:0000230000130000
#08818:13001313
#0881b:00130000
#08812:13
#08815:0000230000130000
#07312:0000000000000013
#0731b:0000001300000000
#07315:0023000013000000
#07318:2300000000130000
#07515:00131300
#0751b:0000001300130000
#07518:0013000000000013
#07512:13
#07615:00131300
#07618:0000001300000013
#07916:0013000000000000
#07919:00130000
#07914:0000001300000000
#07917:0013
#07915:0000000000000013
#07912:0000000000130000
#0791b:13
#0741b:00130000
#07418:1300000000000013
#07415:0013000000001300
#07715:1300001300000000
#0771b:0013000000000000
#07718:0000000013000013
#07712:0000000000130000
#07815:13230000
#0781b:0013000000000000
#08412:1300001300000000
#08418:0013000013000000
#08415:00130000
#09118:0000130000130000
#09115:0013000013000000
#0911b:0000001300000013
#09112:23
#09110:41
#10018:00130000
#10015:0000001300000000
#10012:0000000000000013
#1001b:0013
#10118:1300000000130000
#10115:0013000013000000
#10112:0000000000000013
#1011b:0000001300000000
#10218:13
#10215:0013000000000000
#1021b:00230000
#10315:1313
#10318:0013000000130000
#10312:00130000
#1031b:0000001300000013
#10415:0000130000000013
#10418:0000001300000000
#10412:0013
#0991b:13
#09915:0000130000130000
#09918:0013000013000000
#09912:0000001300000013
#10515:0000001300000000
#1051b:13
#10518:0013
#10615:13
#10618:0013000000000000
#1061b:0000000000000013
#10612:00130000
#10712:1300001300000013
#10718:0013000013000000
#10715:00130000
#1081b:1300001300000000
#10815:0013000013000000
#10818:0000130000000013
#10915:13
#10918:0013000000000000
#00418:0000000000000013
#00412:0033330033000013
#0051b:0013000000000013
#00515:0000130000000013
#00518:0013
#00512:0000000000130000
#00618:0013000000000013
#00612:0000130000000013
#0061b:0013
#00615:0000000000130000
#0071b:0013000000000013
#00715:0000130000000013
#00718:0013
#00712:0000000000130000
#00818:0013000000000000
#00812:00130000
#0081b:0013
#00815:0000000000130000
#0001b:0000000000000013
#00112:0000000000000013
#00118:0033330033000000
#00315:0000000000000013
#0031b:0033330033000000
#00218:0000000000000013
#00215:0033330033000000
#02812:0014000013000000
#02819:13
#02818:0000001313000000
#02815:00000013
#0281b:00000013
#0411a:14
#04119:0000001400000000
#04115:00130000
#04118:00000014
#04114:0000000000130000
#04217:0014000000000000
#04213:13
#04212:0000001313000000
#04218:0013
#0421b:00000013
#04215:00000013
#04317:14
#04318:0000001400000000
#04312:00130000
#04319:00000014
#04313:0000000000130000
#0441a:0014000000000000
#04414:13
#04415:0000001313000000
#0441b:0013
#04418:00000013
#04412:00000013
#00918:0000330033330013
#0091b:13
#00912:23
#01118:0033330033330013
#01318:0033330033330013
#01518:0033330033130000
#0101b:0033330033330013
#0121b:0033330033330013
#01215:0013
#0141b:0033330033330013
#0531f:11
#05314:24
#05318:0000002400000000
#05312:00000024
#0531a:0000000000000024
#04918:24
#04914:0000002400000000
#0491a:00000024
#04912:0000000000000024
#04910:41
#08914:2424
#08918:0024000000240000
#02016:00240000
#02012:0024
#0201a:0024
#05712:24000024
#0571a:0000002400000000
#05716:0000000000000024
#02552:14
#02553:0000001400000000
#02554:00000014
#02655:0014000000000000
#0325b:0063
#02352:0000002300000000
#0235b:63
#02355:0000000000000063
#02458:0053
#06655:0013
#06652:00530000
#06752:0000000000530000
#06755:0000000000000063
#07158:0000000000000053
#0715b:0000000000630000
#09852:00530000
#09855:0013
#08152:53
#08155:0063
#07058:00530000
#0705b:0013
#06158:53
#0615b:00000063
#06155:0063
#06152:00530000
#02252:0013
#01952:0000005300000000
#09358:0013000000000000
#09355:0000000000130000
#09752:1300000000130000
#0975b:0013000000000000
#06858:0053
#06952:0013000000000000
#0695b:0000000000130000
#01758:0000000000000053
#01755:0063
#01855:0063
#01852:00000013
#0215b:63
#02158:0000000000000053
#02755:14
#02754:0000001400000000
#02753:00000014
#0295b:0000000000000063
#03055:00630000
#03152:0000005300000000
#03155:0000000000000063
#04852:0053
#0395b:0000002300000000
#03958:0000000000000053
#04055:00630000
#04052:0053
#0355b:0000006300000000
#03558:0000000000000053
#03355:0000000000000063
#03358:0053
#03458:0053
#0345b:00000013
#03752:53
#03755:0000000000000063
#04552:0000000000000053
#04658:00530000
#0475b:0000006300000000
#04758:0000000000000053
#03858:00530000
#0385b:0013
#03655:00630000
#0525b:00630000
#05255:00630000
#05252:0053
#05258:0053
#05658:0000005300000000
#0605b:00000063
#06258:53
#06255:0063
#06252:00530053
#0625b:00000063
#06355:13
#06358:13
#06555:1300000000130000
#06558:0013000000000000
#0745b:00630000
#07458:0013
#0755b:0000000000630000
#07558:0000000000000053
#07955:0000000000000063
#07952:0000000000530000
#07655:0063
#0775b:0013000000000000
#07752:0000000000130000
#07358:1300000000130000
#07355:0013000000000000
#07855:00630000
#07852:0013
#0825b:00630000
#09158:0000000000530000
#0915b:0000000000000063
#09252:0053
#09452:00530000
#09455:0013
#09555:0000000000630000
#09552:0000000000000053
#0965b:0063
#10155:0013000000000000
#10158:0000000000130000
#09955:0000000000630000
#09952:0000000000000053
#1005b:0063
#10358:0000000000530000
#1035b:0000000000000063
#1025b:00630000
#10258:0013
#1055b:63
#10558:0053
#10652:00530000
#0005b:0000000000000063
#00152:0000000000000053
#00355:0000000000000063
#00258:0000000000000053
#02852:0014000000000000
#0415a:14
#04159:0000001400000000
#04158:00000014
#04257:0014000000000000
#04357:14
#04358:0000001400000000
#04359:00000014
#0445a:0014000000000000
#00958:0000000000000053
#0095b:63
#00952:53
#01158:0000000000000053
#01358:0000000000000053
#01558:0000000000530000
#0105b:0000000000000063
#0125b:0000000000000063
#01255:0023
#0145b:0000000000000063
#08055:0013
#10452:0013
#0003b0:0000000000000013
#001380:0033330033230000
#001320:0000000000000013
#002350:0033330033230000
#002380:0000000000000013
#0033b0:0033330033230000
#003350:0000000000000013
#004320:0033330033230000
#009320:13
#012350:0053
#016320:23
#0093b1:13
#009381:0000330033330033
#0103b1:0033330033330033
#011381:0033330033330033
#0123b1:0033330033330033
#013381:0033330033330033
#0143b1:0033330033330033
#015381:0033330033330000
#0163b1:23
#017351:0013
#017321:00000023
#017381:0000000000000013
#0183b1:0023000000000000
#018351:0013
#018321:00000023
#019321:0000001300000000
#019351:0000000000230000
#0213b1:13
#021381:00230000
#021381:0000000000000013
#0223b1:0023000000000000
#0233b1:13
#023381:00230000
#023321:0000001300000000
#023351:0000000000230000
#023351:0000000000000013
#024321:0023000000000000
#024381:0013
#0243b1:00000023
#0293b1:0000000000000013
#030381:0023000000000000
#030351:00130000
#030321:0023
#031321:0000001300000000
#031351:0000000000230000
#031351:0000000000000013
#032321:0023000000000000
#0323b1:0013
#032381:00000023
#033381:0013
#0333b1:00000023
#033351:0000000000000013
#034321:0023000000000000
#034381:0013
#0343b1:00000023
#0353b1:0000001300000000
#035381:0000000000230000
#035381:0000000000000013
#0363b1:0023000000000000
#036351:00130000
#036321:0023
#037321:13
#037351:00230000
#037351:0000000000000013
#038321:0023000000000000
#038381:00130000
#0383b1:0023
#0393b1:0000001300000000
#039381:0000000000230000
#039381:0000000000000013
#0403b1:0023000000000000
#040351:00130023
#040321:0033
#045321:0000000000000013
#046351:0023000000000000
#046381:00130000
#0463b1:0023
#0473b1:0000001300000000
#047381:0000000000230000
#047381:0000000000000013
#0483b1:0023000000000000
#048321:0013
#048351:00000023
#0523b1:00130023
#052391:0000003300000000
#052381:0033
#052350:00130023
#052330:0000003300000000
#052320:0033
#056380:0000001300000000
#0563b0:0000000000230000
#0603b0:00000013
#061380:33
#0613b0:00333333
#062380:33
#0623b0:00333333
#063380:23
#060321:00000013
#061321:33330033
#061351:0033
#062321:33330033
#062351:0033
#063351:23
#066321:00130000
#066351:0023
#067321:0000000000130000
#067351:0000000000000033
#068321:0023000000000000
#068381:0013
#0683b1:00000023
#070381:00130000
#0703b1:0023
#0713b1:0000000000130000
#071381:0000000000000033
#0723b1:0023000000000000
#0743b1:00130000
#074381:0023
#0753b1:0000000000130000
#075381:0000000000000033
#0763b1:0023000000000000
#076351:0013
#076321:00000023
#078351:00130000
#078321:0023
#079321:0000000000130000
#079351:0000000000000033
#080321:0023000000000000
#081321:13
#081351:00230000
#081351:0013
#081321:0000000000000023
#0823b1:00130000
#082381:0023
#091381:0000000000130000
#0913b1:0000000000000033
#092381:0023000000000000
#092321:0013
#092351:00000023
#094321:00130000
#094351:0023
#095351:0000000000130000
#095321:0000000000000033
#096351:0023000000000000
#0963b1:0013
#096381:00000023
#098321:00130000
#098351:0023
#099351:0000000000130000
#099321:0000000000000033
#100351:0023000000000000
#1003b1:0013
#100381:00000023
#1023b1:00130000
#102381:0023
#103381:0000000000130000
#1033b1:0000000000000033
#104381:0023000000000000
#1053b1:13
#105381:00230000
#105381:0013
#1053b1:0000000000000023
#106321:00130000
#106351:0023
