This file was generated by Ched 2.6.4.0.
#TITLE ""
#ARTIST ""
#DESIGNER ""
#DIFFICULTY 0
#PLAYLEVEL
#SONGID ""
#WAVE ""
#WAVEOFFSET 0
#JACKET ""
#REQUEST "ticks_per_beat 480"
#00002: 4
#BPM01: 205
#00008: 01
#TIL00: ""
#HISPEED 00
#MEASUREHS 00
#00512:0013130000000016
#00516:0000000013130000
#0051b:0013
#00517:0013130000000000
#01716:00000013
#01717:0000130000000013
#01712:1300230023000023
#01719:0013001300000000
#01714:0000000000130000
#0171b:23001313
#01710:41
#01812:0013230000002300
#01817:0000130000130000
#0181b:1300001313000000
#01816:0013
#0191b:1300001300001300
#01916:13000013
#01914:0013000000000000
#01917:0000130000130000
#01912:0000230023000023
#0191a:0000000000000024
#02116:13130000
#02117:00000013
#02119:0000000000130000
#02112:0013000013001313
#0211b:1300230023000023
#02114:0000001300000000
#02217:0013001300000000
#02216:13131313
#02214:0000000000000013
#0221b:00231323
#02212:0000001300000000
#02312:1300130000130013
#02317:0013000000001300
#02316:0000001300000000
#0231b:1300230023000023
#02417:0013000000000000
#02412:0000130000130000
#02414:0000001300000000
#02416:1313
#0241b:00231323
#04512:1300001300000013
#0451b:1300230023000023
#04514:00140000
#04515:00001313
#04518:0014000000130000
#04516:00000014000000000000000000000000
#04617:0000000000000013
#04612:0000001313000000
#0461b:0013230000002300
#04616:13141400
#04717:0013001300000000
#0471b:1300230023130000
#04712:0000130000001323
#04718:00000013
#04812:0013000000000000
#04815:0000130013131313
#04818:00000000000013000013001300130013
#0481b:00230000
#0491b:13000013
#04912:2600001300002600
#04915:0000130000000026
#04918:0000002600130000
#04910:41
#0501a:00000014
#05018:2600130000000014
#05014:0000000000000013
#05016:00000013
#05012:1300002600000000
#0501b:0000001300000000
#05116:14131414
#05112:1313
#0511a:00140000
#05114:0000001400000013
#05119:0000001300000000
#05118:0000000000000014
#0511b:00000013
#05618:00000013
#05615:0000000000130013
#0561b:0000001300000000
#05617:00130000000000001300000000000000
#05616:00130000
#05612:1300001300000000
#05614:0013000000000000
#05619:00000013000000000000000000000000
#05415:00130013
#05418:0000002600000013
#0541b:13
#05412:2600001300000000
#05516:00000000130000000013000000000000
#0551b:0000001313000013
#05512:1300001300000013
#05517:00130000000000000000000013000000
#05514:00001300000000000000001300000000
#05519:00000013000000000000130000000000
#06812:0013001313000000
#06817:0000001313000000
#0681b:0000130000130013
#06816:0000000000130000
#0711b:13000013000000000000130000000000
#07116:0013000000130000
#07114:00130000
#07117:0000001300000013
#07119:0013
#07112:13000000000000130000000000000000
#06716:13000000000000130000000000000000
#06712:0013130000130000
#0671b:1300001313000013
#06717:00000013000000000000130000000000
#06619:0000000000000013
#06612:0013001300001300
#06616:13130000
#0661b:00130000
#06617:0000001300001300
#06610:0041
#07216:0013000000000000
#07212:00131300
#07219:0000001300000000
#0721b:0013
#07215:0000000000131313
#07218:00000000000000000000001300130013
#07217:00130000
#1071b:1300000000000013
#10716:1313000000000000
#10714:0000001300000000
#10712:0000000013130000
#10717:0000000013130000
#10719:00130000
#08516:1300000013132300
#0851b:1300000000002313
#08512:00230000
#08517:00230000
#08812:1313
#08818:0000000000131313
#08815:00000000000000000000001300130013
#0881b:00231300
#08817:13
#08816:00230000
#10917:12
#1091a:0012000000000000
#05216:00131300
#05212:1400001300130000
#0521b:00131300
#05217:1300001300130000
#06919:13
#06917:0013000000000000
#06916:0000001300000000
#06914:00131300
#06912:0000000000130000
#06918:0000000000000013
#06915:0000000000000013
#0691b:00000013
#07019:13
#07013:0013000000000000
#07017:0000001300000000
#07016:0000000000130000
#0701b:00230013
#07014:13
#0701a:0013000000000000
#07012:00232300
#00616:0013130000000000
#0061b:0013130000000000
#00617:0000000013130000
#00612:0013
#00618:0000000000000016
#00712:0013000013000016
#00717:0013000013000000
#00716:0000130000130000
#0071b:00130000
#0081b:0013000013000000
#00816:0013000013000000
#00817:0000130000130013
#00812:00130000
#00916:0000131300130000
#0091b:1313130000130000
#00912:2300000013000013
#00917:00000013
#0101b:1300130013130013
#01012:1300001300001300
#01016:0013130000130000
#0111b:1300131300130000
#01112:1313000000130000
#01116:0000130013000013
#01117:00000013
#01212:13130013
#0121b:1300001300130013
#01216:0013130013130000
#01317:0000131300130000
#01312:1313130000130000
#0131b:2300000013000013
#01316:00000013
#01412:1300130013130013
#0141b:1300001300001300
#01417:0013130000130000
#01512:1300131300130000
#0151b:1313000000130000
#01517:0000130013000013
#01516:00000013
#0161b:13131300
#01615:00001300000000000000130000130013
#01618:0000001300001313
#01612:13131300
#06312:1600000016160000
#06318:0000160016160013
#06315:0000000000000013
#06418:0013141516000000
#0641a:00000014
#06415:0013000000000014
#06414:00140000
#06413:0000001500000000
#06412:0016
#06012:1c141c13
#06017:00000013
#0601b:0000000000000013
#06016:0000001800000000
#0601a:00140000
#06112:13131300
#06119:0013
#0611b:0013000000001300
#06117:1300000000000013
#06116:0000001300130000
#06214:13
#0621b:1313
#06217:0013000000000000
#06216:0000130013000014
#06212:0000001300130000
#0621a:00000014
#06512:1424000000000013
#0651a:2414000000000000
#06517:0000001300130000
#0651b:00001313
#06519:00130000
#0651f:21
#0761b:0013001313000000
#07612:0000130000130013
#07616:0000001313000000
#07617:0000000000130000
#07912:13000013000000000000130000000000
#07917:0013000000130000
#07919:00130000
#07916:0000001300000013
#07914:0013
#0791b:13000000000000130000000000000000
#07517:13000000000000130000000000000000
#0751b:0013130000130000
#07512:1300001313000013
#07516:00000013000000000000130000000000
#07414:0000000000000013
#0741b:0013001300001300
#07417:13130000
#07412:00130000
#07416:0000001300001300
#07714:13
#07716:0013000000000000
#07717:0000001300000000
#07719:00131300
#0771b:0000000000130000
#07715:0000000000000013
#07718:0000000000000013
#07712:00000013
#07814:13
#0781a:0013000000000000
#07816:0000001300000000
#07817:0000000000130000
#07812:00230013
#07819:13
#07813:0013000000000000
#0781b:00232300
#0731a:1424000000000000
#07312:2414000013001300
#0731b:0000000000000013
#07316:0000001300130000
#07314:00130000
#08018:0013131313131313
#08015:00000013001300130013001300130013
#10817:1313000000000000
#10819:0000001300000000
#1081b:0000000013130000
#10812:13
#10816:0000000013130000
#10814:0000130000000012
#08617:1300000013132300
#08612:1300000000002313
#0861b:00230000
#08616:00230000
#08716:13000023
#08712:00231300
#08714:0000000000130000
#0871b:1300000000002313
#08717:00230000
#09216:0013000000000000
#09217:1300001300131300
#0921b:0000000013000013
#09219:00130000
#09212:0000001313000000
#0951b:1300130000130000
#09512:1300000013000013
#09517:0013000000001300
#09514:00000013000000000000000000000000
#09516:0000001300130000
#09519:00000000000000130000000000000000
#09019:2525000000000013
#09012:2525000026261300
#09017:00000013
#09018:0000000026260000
#09112:2313000000130000
#09117:00000013000000000000130000000000
#09116:00000000000000130000000013000000
#09119:0013
#09114:00130000
#0911b:2300001300000013
#09110:41
#0961b:00131300
#09612:00131300
#09615:0000000000131313
#09618:00000000000000000000001300130013
#09617:0013000000000000
#09616:1300001300000000
#09317:13
#0931b:0013000000000013
#09316:0000000013000014
#09314:00130000
#09312:0000001300130000
#09319:00000013
#0941b:13000013
#09412:1313240024000000
#09415:0000001400000000
#09417:0000000000140000
#09416:0014000000000013
#0941a:00240000
#00012:0000000000000012
#00114:0012120000000000
#00116:0000000012120012
#00214:0012120000000000
#00212:0000000012120000
#0031a:0012120000000000
#00318:0000000012120012
#0041a:0012120000000000
#0041c:0000000012120000
#00418:0000000000000016
#10517:0000130013130000
#10512:1300000013130000
#10516:0000000000000013
#1051b:13
#10519:0013000000000000
#10515:0000001300000000
#10616:0000130013130000
#1061b:1300000013130000
#10617:0000000000000013
#10612:13
#10614:0013000000000000
#10618:0000001300000000
#10412:13
#1041b:13
#10415:0013131313131313
#10418:00000013001300130013001300130013
#10317:00000013000000000000000013000000
#10314:00130000
#10316:1313
#10319:00000000000000130000000000000000
#1031b:1300000000130000
#10312:0024002400240024
#0971b:13
#09712:2613000000130013
#09714:00131300
#09716:0000001300000000
#09717:00000013
#0971a:0000002400240024
#09718:0026000000000000
#09812:00130013
#09817:00001313
#09816:0013001300000013
#09814:13
#0981a:0024002400240024
#09912:1300000000130000
#09917:1313
#09914:00000000000000130000000000000000
#09916:00000013000000000000000013000000
#09919:00130000
#0991a:0024002400240024
#10112:1324002400240024
#10117:1300131300000000
#1011b:0013000013130013
#10116:00001313
#10012:13130013
#10014:0000001300130000
#10016:0013000013000013
#1001a:0024002400240024
#10219:1300002300000000
#10217:0013230000000000
#1021b:00002313
#10216:00000013
#10212:0024002400240024
#04116:14131314
#04112:0013001400130013
#0411b:13001313
#04117:0013001300000013
#04216:13131300
#04212:0014001300130000
#0421b:00131300
#04217:0013000000130000
#04417:13131300
#0441b:0000001300130000
#04412:00131300
#04416:0013000000130000
#0441a:0014000000000000
#04316:1413001300001413
#0431b:0013000000130013
#04317:00131300
#0431a:0000001400000000
#04312:13001313
#05312:1300002600001300
#0531b:0000001300000000
#05318:26130026
#05315:0000000000130026
#0531f:11
#0571a:1400140000141400
#05712:2800141400142800
#05716:0000002800000000
#05714:0000000000000028
#05812:1400142800001c18
#0581a:0000141400000000
#05816:28
#0591a:14001414
#05912:14001c0014001418
#05916:0000001800000000
#0291b:1300001300000013
#02912:1300230023000023
#02918:00141313
#02915:0000000000130000
#02914:0014000000000000
#02916:00000014000000000000000000000000
#02910:41
#03016:0000140014000013
#0301b:0000001313000000
#03012:0013230000002300
#03017:13
#03116:0013001300000000
#03112:1300230023130000
#0311b:0000130000001323
#03115:00000013
#0321b:0013000000000000
#03218:00000000130000000000000000130013
#03215:0000001300001313
#03212:0000230013130000
#02516:1400000000131400
#02514:0013000013000013
#02512:0000131400000000
#02612:1314000000000000
#02614:00130000
#02616:0000001300000000
#02716:14000014
#02719:0013000013000013
#0271b:00130000
#0271a:0000001400000000
#02717:0000000000130000
#0281b:13
#0281a:0014000000000000
#02819:00130000
#02817:0000001300000000
#02016:1413240013000000
#02017:00000013
#02012:00230023
#0201a:0024
#03317:00000013
#03316:0000130000000013
#0331b:1300230023000023
#03314:0013001300000000
#03319:0000000000130000
#03312:23001313
#0341b:0013230000002300
#03416:0000130000130000
#03412:1300001313000000
#03417:0013
#03512:1300001300001313
#03517:13000013
#03519:0013000000000000
#03516:0000130000130000
#0351b:0000230023000023
#03717:13130000
#03716:00000013
#03714:0000000000130000
#0371b:0013000013001313
#03712:1300230023000023
#03719:0000001300000000
#03816:0013001300000000
#03817:13131313
#03819:0000000000000013
#03812:00231323
#0381b:0000001300000000
#0391b:1300130000130013
#03916:0013000000001300
#03917:0000001300000000
#03912:1300230023000023
#03910:41
#04016:0013000000000000
#0401b:0000130000130000
#04019:0000001300000000
#04017:1313
#04012:00231323
#03617:0013000013000000
#03616:13130013
#0361b:00230023
#08112:1313
#0811b:1300000013130000
#08115:0013001300000000
#08118:00130000
#08116:0000000000130000
#0821b:1313
#08212:1300000013130000
#08218:0013001300000000
#08215:00130000
#08217:0000000000130000
#08312:1313
#08317:1313
#08319:0013001300000000
#0831b:0000130000130000
#08316:0000000000130000
#0841b:1313
#08416:1313
#08414:0013001300000000
#08412:0000130000130000
#08417:0000000000130000
#0891a:0000000024240000
#08912:2323000024240000
#0891b:2323000000000000
#0565b:0000006300000000
#05657:0023
#02152:0000000000000053
#01757:0000000000000053
#0185b:23006343
#01857:0000000000230000
#02256:2313
#02456:2363
#02452:0000000000230000
#02352:1300000000000053
#06656:00634300
#06652:0000002300000000
#0665b:00634300
#06657:0000002300000000
#06752:0000000000530000
#0675b:0000000000000063
#07157:0000000000000053
#07156:0000000000630000
#10752:0000000000530000
#0705b:00634300
#07057:0000002300000000
#07056:0000000000230000
#07052:0053
#05256:00636343
#05252:0000005300230000
#0525b:00636343
#05257:0000005300230000
#0195b:0000001300000000
#0195a:0000000000000064
#04952:0000001300000000
#0495b:13
#06957:0013000000000000
#06952:0000000000130000
#0095b:0000000000630000
#00957:00000023
#01056:0000000000630000
#01052:00000023
#01256:0000000000630000
#01252:00000023
#01457:0000000000530000
#0145b:00000023
#0115b:0000000000630000
#01157:00000023
#01352:0000000000530000
#01356:00000023
#01552:0000000000530000
#01556:00000023
#0645a:00000064
#06455:0000000000000024
#0655a:44
#06552:0034000000330000
#06857:0053
#0685b:0000000000230000
#06852:0053
#06856:0000000000230000
#07457:00533300
#0745b:0000002300000000
#07452:00533300
#07456:0000002300000000
#0755b:0000000000630000
#07552:0000000000000053
#07956:0000000000000063
#07957:0000000000530000
#07756:0013000000000000
#0775b:0000000000130000
#07656:0063
#07652:0000000000230000
#0765b:0063
#07657:0000000000230000
#07856:0000002300000000
#07857:0000000000230000
#07852:00533300
#0785b:0063
#07352:34
#0735a:0044000000000000
#0735b:0000000000430000
#1085b:0000000000630000
#0855b:13
#08652:13
#0875b:13
#08852:13
#09152:3300000000530000
#0915b:4300000000000063
#09156:00000023
#0935b:0013000000000000
#09352:0000000000130000
#09455:0000002400000000
#09457:0000000000240000
#0945a:00644400
#09452:0054
#0165b:4343
#01652:00330000
#10557:0000000000530000
#10656:0000000000630000
#0925b:0043
#09252:00005333
#09257:2300000000230000
#09852:00533300
#09856:0000002300000000
#09752:3600000000130000
#09758:0046000000000000
#1015b:0013000000130000
#09956:00000023
#09952:0000000000530000
#1025b:0043
#0955b:0000000000630000
#09557:00000023
#09552:0000000000000053
#09656:23
#10357:00000023
#1035b:0000000000630000
#0615b:0023000000006300
#06157:5300000000000023
#06152:00535300
#06156:0000002300230000
#0625b:63
#06257:0023000000000000
#06256:0000630063000024
#06252:0000002300230000
#0625a:00000064
#06057:00000053
#0605b:0000000000000023
#06052:1c1c
#04156:34000034
#04152:0000003400000000
#0415b:63002363
#04157:0023005300000023
#04252:0034000000230000
#0425b:00236343
#04256:00006343
#04257:0053000000230000
#04457:00005333
#0445b:0000000000230000
#04452:00235333
#04456:0063000000230000
#0445a:0044000000000000
#04356:4423006300004423
#0435a:0000004400000000
#04352:53002353
#05052:13
#0505b:0000001300000000
#05352:13
#0535b:0000001300000000
#0545b:13
#05452:0000001300000000
#0575a:14
#05752:0000001400000000
#0585a:0000001400000000
#05852:14
#0595a:0014
#05952:14
#04552:0000000000000053
#04656:23344400
#0295b:0000000000000063
#03057:23
#03056:00443400
#02556:34000034
#02552:0000003400000000
#02652:0034000000001300
#02657:00000013
#02756:44000044
#0275a:0000004400000000
#0285a:0044000000000000
#02856:00000013
#0285b:00000013
#03857:2313
#0375b:0000000000000063
#03356:0000000000000063
#03452:23005333
#03456:0000000000230000
#04057:2353
#0405b:0000000000230000
#0395b:1300000000000063
#03552:0000001300000053
#03656:23630000
#00458:0000000000000046
#00552:0000000000000036
#00658:0000000000000046
#00752:0000000000000036
#0815b:0000000000230000
#08156:0000000000630000
#08252:0000000000230000
#08257:0000000000530000
#08356:0000000000230000
#0835b:0000000000630000
#08457:0000000000230000
#08452:0000000000530000
#02056:24
#0635a:44
#0003c0:0000000000000012
#0023c0:0000000000000022
#002321:0000000000000012
#004321:0000000000000022
#0053b1:0000000000130023
#006321:0000000000130023
#0073b1:0000000000130023
#008321:0000000000130023
#0093b1:0000000000130023
#009371:00000053
#010361:0000000000130023
#010321:00000053
#0113b1:0000000000130023
#011371:00000053
#012361:0000000000130023
#012321:00000053
#013321:0000000000130023
#013361:00000053
#014371:0000000000130023
#0143b1:00000053
#015321:0000000000130023
#015361:00000053
#017371:0000000000000013
#0183b1:53
#018371:0023000000000000
#0183b1:00001323
#018371:0000000000530000
#0193a1:0000000000000014
#020361:54
#0203a1:0024000000000000
#021321:0000000000000013
#022361:53
#022321:0023000000000000
#023321:0000000000000013
#024361:53
#024321:0023000000000000
#024361:00001323
#024321:0000000000530000
#0253b1:13
#025371:00530000230000000000000000000000
#025371:0000001300000000
#0253b1:00000000000000530000230000000000
#0253b1:00000013
#025371:00000000000000000000000000530000
#026371:23
#026371:0013000000000000
#0263b1:00000053000023000000000000000000
#0263b1:0013
#026371:00000000000000000053000023000000
#026360:0013
#026320:00000000000000000053000023000000
#027320:13
#027360:00530000230000000000000000000000
#027360:0000001300000000
#027320:00000000000000530000230000000000
#027320:00000013
#027360:00000000000000000000000000530000
#028360:23
#028360:0013000000000000
#028320:00000053000023000000000000000000
#028320:0013
#028360:00000000000000000053000023000000
#028371:0013
#0283b1:00000000000000000053000023000000
#0293b1:0000000000000013
#030371:53
#0303b1:0023000000000000
#030371:00000013
#0303b1:0000000000000033
#031371:33
#0313b1:0023000000000000
#0313b1:0000001300000000
#031351:0000000000230000
#031321:0000000000000013
#032381:0023000000000000
#032351:0013
#0323b1:00000023
#033361:0000000000000013
#034321:53
#034361:0023000000000000
#034321:00001323
#034361:0000000000530000
#035321:0000000000000013
#036361:53
#036321:0023000000000000
#036361:00130000
#036321:0023
#0373b1:0000000000000013
#038371:53
#0383b1:0023000000000000
#0393b1:0000000000000013
#040371:53
#0403b1:0023000000000000
#040371:00001323
#0403b1:0000000000530000
#0413b1:13230000
#041371:0053000000000000
#041371:0000001300230000
#0413b1:0053
#0413b1:00000013
#041371:0000000000000053
#0423b1:23
#042371:0013002300000000
#0423b1:00530000
#0423b1:00001323
#042371:0000000000530000
#042360:00001323
#042320:0000000000530000
#043320:13230000
#043360:0053000000000000
#043360:0000001300230000
#043320:0053
#043320:00000013
#043360:0000000000000053
#044320:23
#044360:0013002300000000
#044320:00530000
#044320:00001323
#044360:0000000000530000
#044371:00001323
#0443b1:0000000000530000
#045321:0000000000000013
#046361:53
#046321:0023000000000000
#046361:00000013
#046321:0000000000000033
#047361:33
#047321:0023000000000000
#047321:0000001300000000
#047381:0000000000230000
#0473b1:0000000000000013
#048351:0023000000000000
#052361:00133323
#052321:0000003300530000
#0523b0:00133323
#052370:0000003300530000
#0563b0:0000001300230000
#056370:0053
#060370:00000013
#0603b0:0000000000000053
#061370:33230000
#0613b0:0053000000000000
#061321:00133323
#061361:0000005300530000
#0613b0:00000013
#061370:0000000000000053
#0623b0:33230000
#062370:0053000000000000
#062361:00133323
#062321:0000005300530000
#0623a0:00000014
#062360:0000000000000054
#0633a0:24
#0643a0:00000014
#064350:0000000000000054
#0653a0:24
#065320:0000001300230000
#065360:0033
#065370:0000000000000013
#0663b0:33
#066370:0023000000000000
#066360:00132300
#066320:0000005300000000
#0663b1:00132300
#066371:0000005300000000
#067321:0000000000130000
#067361:0000000000005323
#0673b0:0000000000000013
#068370:5323000000000000
#068370:00001323
#0683b0:0000000000530000
#068321:00001323
#068361:0000000000530000
#068361:0000000000000013
#069321:0023000000000000
#0693b1:0000001300000000
#069371:0000000000230000
#0703b1:00132300
#070371:0000005300000000
#070320:00001323
#070360:0000000000530000
#071360:0000000000130000
#071320:0000000000005323
#071371:0000000000000013
#0723b1:5323000000000000
#0733b1:0000001300230000
#073371:0033
#073361:0000000000000013
#074321:33
#074361:0023000000000000
#074371:00132300
#0743b1:0000005300000000
#074320:00132300
#074360:0000005300000000
#0753b0:0000000000130000
#075370:0000000000005323
#075321:0000000000000013
#076361:5323000000000000
#076361:00001323
#076321:0000000000530000
#0763b0:00001323
#076370:0000000000530000
#076370:0000000000000013
#0773b0:0023000000000000
#077320:0000001300000000
#077360:0000000000230000
#078320:00132300
#078360:0000005300000000
#0783b1:00001323
#078371:0000000000530000
#079371:0000000000130000
#0793b1:0000000000005323
#079360:0000000000000013
#080320:5323000000000000
#0813b0:0000000000130000
#081370:0000000000000023
#081361:0000000000130000
#081321:0000000000000023
#082321:0000000000130000
#082361:0000000000000023
#082370:0000000000130000
#0823b0:0000000000000023
#083360:0000000000130000
#083320:0000000000000023
#0833b1:0000000000130000
#083371:0000000000000023
#084371:0000000000130000
#0843b1:0000000000000023
#084320:0000000000130000
#084360:0000000000000023
#091320:0000000000130023
#091360:00000053
#0913b1:0000000000000013
#092371:53
#0923b1:0023000000000000
#092321:00001323
#092371:0000000000530000
#092361:0000000000000013
#093321:33
#093361:0023000000000000
#093371:0000001300230000
#0933b1:0033
#0943a1:00142400
#094351:0000005400000000
#094320:00001424
#094370:0000000000540000
#0953b0:0000000000130023
#095370:00000053
#095321:0000000000000013
#096361:53
#096321:0023000000000000
#098321:00132300
#098361:0000005300000000
#099321:0000000000130023
#099361:00000053
#1033b1:0000000000130023
#103371:00000053
#105371:0000000000130000
#1053b1:0000000000000023
#106361:0000000000130000
#106321:0000000000000023
#107321:0000000000130000
#107361:0000000000000023
#1083b1:0000000000130000
#108371:0000000000000022
