This file was generated by Ched 2.6.4.0.
#TITLE ""
#ARTIST ""
#DESIGNER ""
#DIFFICULTY 0
#PLAYLEVEL
#SONGID ""
#WAVE ""
#WAVEOFFSET 0
#JACKET ""
#REQUEST "ticks_per_beat 480"
#00002: 4
#BPM01: 205
#00008: 01
#TIL00: ""
#HISPEED 00
#MEASUREHS 00
#0501a:00000014
#05014:24
#0511a:14
#05112:00141400
#05118:00000014
#05214:1414
#05218:00140014
#0041a:0000000000000014
#0051a:0000000000000014
#00612:0000000000000014
#00712:0000000000000014
#01216:0014
#01712:1414
#01718:00140014
#01710:41
#01814:1414
#0181a:00140014
#01912:1414
#01918:00140014
#02014:1414
#0201a:00140000
#0211a:1414
#02114:00140014
#02218:1414
#02212:00140014
#0231a:1414
#02314:00140014
#02418:1414
#02412:00140000
#02912:14
#02918:00140000
#02914:0014
#0291a:00000014
#02910:41
#03012:14
#03018:00140000
#03014:0014
#0301a:00000014
#03112:14
#03118:00140000
#03114:0014
#0311a:00000014
#03214:14
#03218:00140000
#03212:0014
#03318:14
#03312:00140000
#0331a:0014
#03314:00000014
#03418:14
#03412:00140000
#0341a:0014
#03414:00000014
#03518:14
#03512:00140000
#0351a:0014
#03514:00000014
#03618:1414
#03612:00140000
#03714:14
#0371a:00140000
#03712:0014
#03718:00000014
#03814:14
#0381a:00140000
#03812:0014
#03818:00000014
#03914:14
#0391a:00140000
#03912:0014
#03918:00000014
#03910:41
#04014:1414
#0401a:00140000
#04518:14
#04514:00140000
#0451a:0014
#04512:00000014
#04618:14
#04614:00140000
#0461a:0014
#04612:00000014
#04718:14
#04712:00140000
#0471a:0014
#04714:00000014
#0481a:14
#04812:00140000
#04818:0014
#05412:00000014
#05418:24
#05512:14
#0551a:00141400
#05514:00000014
#05618:1414
#05614:00140014
#0581a:00000014
#05814:24
#05918:14
#05914:0014
#0591a:00000014
#05912:00140000
#06014:1414
#0601a:00140000
#06018:00000014
#06112:1414
#06118:00140000
#0611a:00000014
#06214:14
#06218:00140000
#06212:0014
#0621a:00000014
#06512:0014
#0651a:24
#0651f:21
#06618:1414
#06614:00140014
#06610:0041
#0671a:14
#06716:00140000
#06712:0014
#06718:00000014
#0711a:14
#07114:00140000
#07118:0014
#07112:00000014
#07218:14
#07214:00140000
#0721a:0014
#06814:1414
#06818:00140014
#06918:0014
#06914:14
#07012:14
#0701a:00240000
#07014:0024
#0731a:0014
#07312:24
#07414:1414
#07418:00140014
#07512:14
#07516:00140000
#0751a:0014
#07514:00000014
#07912:14
#07918:00140000
#07914:0014
#0791a:00000014
#08014:14
#08018:00140000
#08012:0014
#07618:1414
#07614:00140014
#07714:0014
#07718:14
#0781a:14
#07812:00240000
#07818:0024
#0851a:1414
#08514:00140000
#08612:1414
#08618:00140000
#0871a:14
#08714:00140000
#08718:0014
#08812:14
#08818:00140000
#08814:0014
#09112:14
#09116:00140014
#0911a:0014
#09110:41
#09212:14
#09218:00140000
#09214:0014
#0921a:00000014
#09318:0014
#09312:14
#09016:00000014
#09012:2424
#0901a:2424
#09414:14
#0941a:00240000
#09412:0024
#0951a:14
#09516:00140000
#09512:0014
#09518:00000014
#0971a:0014
#09712:24
#0991a:14
#09916:00140014
#09912:0014
#1001a:14
#10014:00140000
#10018:0014
#10012:00000014
#10114:0014
#1011a:14
#09816:00000014
#09812:1414
#0981a:00140000
#10218:14
#10212:00240000
#1021a:0024
#09614:14
#0961a:00140000
#09618:00000014
#09612:0014
#10312:14
#10316:00140000
#1031a:0014
#10314:00000014
#10418:14
#10412:00140000
#1041a:0014
#1091a:14
#10912:14
#10512:14
#10514:00140000
#1061a:14
#10618:00140000
#10714:14
#10712:00140000
#10818:14
#1081a:00140000
#0531f:11
#05312:24
#05314:00000024
#0531a:24
#0491a:24
#04918:00000024
#04912:24
#04910:41
#08912:2424
#0891a:2424
#0091a:24
#0571a:24
#05718:00000024
#05712:24
#0095a:64
#01256:0024
#0655a:14
#07352:14
#06954:14
#07758:14
#09352:14
#09752:14
#1015a:14
#10552:54
#10554:00240000
#1065a:64
#10658:00240000
#10754:64
#10752:00240000
#10858:54
#1085a:00240000
#0003a0:0000000000000014
#001380:0000000000000024
#002320:0000000000000014
#003340:0000000000000024
#0093a0:14
#012360:0054
#0163a0:24
#025320:14000034
#025340:0000003400000000
#026340:0034000000000000
#026320:00003424
#0273a0:14000034
#027380:0000003400000000
#028380:0034000000000000
#0283a0:00003424
#041380:14000034
#0413a0:0000003400000000
#0423a0:0034000000000000
#042380:00003424
#043340:14000034
#043320:0000003400000000
#044320:0034000000000000
#044340:00003424
#063340:1400340034340034
#064340:0034343424000000
#0813a0:14
#081380:0024
#082320:14
#082340:0024
#083380:14
#0833a0:0024
#084340:14
#084320:0024
#105320:1424
#105340:00540000
#1063a0:1424
#106380:00540000
#107340:1424
#107320:00540000
#108380:1424
#1083a0:00540000
