This file was generated by Ched 2.7.0.0.
#TITLE ""
#ARTIST ""
#DESIGNER ""
#DIFFICULTY 0
#PLAYLEVEL
#SONGID ""
#WAVE ""
#WAVEOFFSET 0
#JACKET ""
#REQUEST "ticks_per_beat 480"
#00002: 4
#BPM01: 200
#BPM02: 201
#BPM03: 205
#BPM04: 201.5
#00008: 01
#05908: 0002
#06308: 0003
#04508: 0003
#07508: 0004
#TIL00: ""
#HISPEED 00
#MEASUREHS 00
#0371f:11
#03714:14
#0861a:0014
#08512:0014
#08212:0014
#0811a:0014
#07918:14
#07814:0014
#07818:14
#07714:0014
#07718:14
#07518:16
#07510:0041
#07418:0016
#07412:16
#07318:0016
#07312:16
#07212:0016
#07218:16
#07118:16
#07112:0026
#06718:16
#06618:0016
#06612:16
#06518:0016
#06512:16
#06412:0016
#06418:16
#06218:0014
#06214:14
#06118:0014
#06114:14
#05912:16
#05812:0016
#05818:16
#05712:0016
#05718:16
#05618:0016
#05612:16
#05512:16
#05518:0026
#05112:16
#05012:0016
#05018:16
#04912:0016
#04918:16
#04818:0016
#04812:16
#04810:0041
#04614:0014
#0451a:0014
#04412:14
#0381a:14
#03412:14
#03318:14
#03310:41
#03018:14
#02912:14
#02614:14
#0251a:14
#02218:14
#01612:14
#01512:14
#01418:14
#01318:14
#01214:14
#01114:14
#0101a:14
#0091a:14
#00910:41
#00812:14
#00718:14
#00614:14
#0051a:14
#00412:14
#00318:14
#00214:14
#0011a:14
#0471f:0021
#04718:0026
#06312:0026
#06310:0041
#02110:41
#0173a0:14
#0183a0:24
#019340:14
#021340:24
#023320:14
#024320:24
#0273a0:14
#0283a0:24
#031320:14
#032320:24
#035380:14
#036380:24
#039340:14
#040340:24
#041390:15
#041370:00000035
#042390:0035
#043370:00250000
#051380:0016
#052380:26
#052320:0016
#053320:26
#053380:00001636
#054380:36362600
#0593a0:0014
#0603a0:0024
#067320:0016
#068320:26
#068380:0016
#069380:26
#069320:00001636
#070320:36362600
#075320:0014
#076320:0024
#079340:0014
#080340:0024
#083380:0014
#084380:0024
#087340:0014
#088340:0000003400000000
#089340:0000342400000000
