This file was generated by Ched 2.7.0.0.
#TITLE ""
#ARTIST ""
#DESIGNER ""
#DIFFICULTY 0
#PLAYLEVEL
#SONGID ""
#WAVE ""
#WAVEOFFSET 0
#JACKET ""
#REQUEST "ticks_per_beat 480"
#00002: 4
#BPM01: 200
#BPM02: 201
#BPM03: 205
#BPM04: 201.5
#00008: 01
#05908: 0002
#06308: 0003
#04508: 0003
#07508: 0004
#TIL00: ""
#HISPEED 00
#MEASUREHS 00
#00214:00120000
#00216:00000012
#00218:0000120000000012
#0041c:0012
#0041a:00120000
#00416:12
#00412:0032120000001200
#00418:0000000000000012
#00312:0000001200000000
#00314:12000012
#0031a:00120000
#0031c:0000000000120000
#00318:0000000000000012
#01012:1313
#01018:0000130000000013
#01015:00130013
#0101b:23
#00915:0000001300001300
#00918:0000130000130013
#00912:23
#0091b:23
#00910:41
#01115:0000130000130000
#01118:00000013
#01112:2300000000000013
#01218:0013001300001300
#01215:0000130000000013
#01212:0013
#0121b:2313
#04115:000000000013000000000000
#0411b:0013
#04118:00130000
#04112:000013
#04817:0013
#04816:00130000
#04812:00130000000000000000000000000000
#0481b:00130000
#04815:00000013
#04818:0013000000000000
#04810:0041
#0511b:1313
#05115:0013000013000000
#05118:00130000
#05112:0000001300001300
#05117:00000013
#00016:0000000000000012
#0001c:00000012
#00112:00120000
#00116:0000000000120012
#0011c:00000012
#00815:00000013
#00812:0012
#00814:00120000
#00818:1200000000000013
#0081c:0032120000000000
#0081a:0000003200000000
#01315:0000130000130013
#01318:0000001300001300
#01312:23
#0131b:23
#01612:1313
#01616:24132413
#0161a:00240024
#01712:2300130000000013
#01716:24
#01815:0013130000000000
#01812:00001313
#01817:0000000000130000
#01915:1313
#01918:0013001300001300
#01912:00130000
#0191b:0000000000130000
#02018:0013130000001300
#0201b:0013
#02515:0000130000000013
#0251b:1300001300000000
#02512:2400000000130000
#02518:00000013
#0261b:1300000000000013
#02618:00130000
#02615:00130013
#02718:0000130000130000
#02715:00000013
#0271b:0000000000000013
#0281b:0013000000000000
#02812:1313
#02818:0000001300001300
#02815:0000130000000013
#02918:0000130000000013
#02912:1300001300000000
#0291b:0000000000130000
#02915:00000013
#0291a:24
#03012:1300000000000013
#03015:00130000
#03018:00130013
#03115:0000130000130000
#03118:00000013
#03112:0000000000000013
#03212:0013000000000000
#0321b:1313
#03215:0000001300001300
#03218:0000130000000013
#04017:001500001500
#04015:000015000015
#04019:2525
#04012:2323
#04412:260000130000000016000000
#04415:000000000013000000000000
#0441b:00130000
#04418:00002326
#04716:1300000013000013
#04712:00000000240000000000001300000000
#0471b:0000000000000013
#04718:00000013
#04717:00130000
#0471a:2424
#0471f:0021
#04918:13
#04915:00130013
#04912:1300000014000013
#0491b:00000000130000000000001300000000
#04917:0000000013000013
#05012:00130013
#05015:0013000013000000
#05018:00000013
#05017:00130000
#0501b:00130000000000000000000000000000
#05218:00130000
#05212:00130013
#0521b:0013
#05215:1313
#05217:00000013
#05312:00130013
#05316:0013
#05315:13
#05318:00130000
#05317:00000013
#0531b:0023
#0541b:13002313
#05417:00130000
#05412:00130000
#05416:2323
#05512:1300000000001313
#05517:1300000000000013
#05519:00130000
#05514:00130000
#0551b:0013
#05516:0023
#05716:13
#05717:00130013
#0571b:1313
#05712:0000130000000013
#06016:1400000000141400
#0601a:0000141400000000
#0591a:1424
#05916:0000140000000014
#05912:2400000014140000
#06314:24140000
#0631b:0000000013000013
#06317:00000000000000000000001300000000
#06312:00000000003434342400000013000000
#06315:0000000000000023
#06318:00240000
#06310:0041
#07918:00000013
#07915:00000013
#0791b:13
#07912:23
#07718:0013
#07716:13
#0771a:1424000000000000
#08415:13000013
#08418:1300000000130013
#08212:1300000000130000
#0821b:13000013
#08218:00131300
#08215:0000001300000000
#08512:13130000
#0851b:13
#0451b:130000000000000000001300000000000000000000130000
#04518:000013000000000000130000
#04512:1300000000130000
#04515:00231300
#04612:0013000000000000
#04615:1323
#0461b:0000001300000000
#04618:00130000
#03315:0000000000131300
#03312:2400131300000000
#03318:0000000000000013
#0331b:13
#03317:0000001300000000
#03310:41
#03618:0013001300001300
#0361b:00130000
#03615:1300000013000013
#03612:00130000
#03418:1300000000000013
#03412:13000013
#03416:00130000
#0341b:00130000
#03515:13
#03512:00130000
#0351b:0000001300000000
#03518:0000000000130000
#06117:0000130000000013
#06116:0013
#0611b:13
#06112:1414000000000000
#0811b:1313
#08118:0000130000130000
#08115:00000013
#08112:1313
#08018:00000013
#08015:0000000000130013
#05812:0014
#05816:0013130000001400
#0581b:00130000
#0581a:0024
#0061a:00120000
#00618:00000012
#00616:0000120000000012
#0071c:0000001200000000
#0071a:12000012
#00714:0012000000000000
#00712:0000000000120000
#00716:0000000000000012
#0051c:00120000
#00518:0000000000120012
#00512:00000012
#01415:0000130000000013
#0141b:1313
#01418:00130013
#01412:23
#01515:00000013
#01518:0000130000130000
#0151b:2300000000000013
#04318:000000000000000013000016
#0431b:13
#04312:001300130000
#04315:00000013
#06216:00130000
#0621b:0013
#06217:00000013
#06412:0013000013000000
#0641b:00130013
#06417:00130000000000000000000000000000
#06415:00230000
#07116:0000000000000013
#07112:00131300
#07115:1300001300000000
#0711b:0000130000001313
#07118:0013000023000000
#06515:0013001300000000
#06512:1300000013000013
#06516:00000000000000000000001300000000
#0651b:23000013
#0651a:0024
#06518:0000230000000023
#06712:1323
#06718:0013000013000000
#06715:00130000
#0671b:0000001300002300
#06716:00000023
#07318:1300001300000000
#0731b:00130000
#07312:00130013
#07315:0013000013000000
#07317:0000000000000013
#07512:1424
#07516:0000140000000014
#0751a:2400000014240000
#07510:0041
#0661b:0013000013001300
#06616:00130000000000002300000013000000
#06612:00130000
#06618:00230000
#0741a:0014
#0741b:0013130000000000
#07416:00130014
#07412:0024
#07616:2400000000142400
#07612:0000142400000000
#06912:0000001300002300
#06918:0000000000130000
#06915:0000230000000013
#06917:13
#0691b:00232300
#0701b:0013000000000000
#07012:00230013
#07018:2323
#0871a:0000000000130000
#0871b:00000013
#08719:0013
#08712:00130000
#08818:00000013
#0891b:13
#08918:0000131300000000
#06816:00130023
#0681b:00130023
#06817:1313
#06812:0023
#07217:0013130000000000
#07216:0013
#0721b:0013
#07212:00130000
#05616:0013130000000000
#05617:0013
#05612:0013
#0561b:00130000
#03718:0000000000131300
#0371b:0000131300000000
#03715:0000000000000013
#03712:13
#03716:0000001300000000
#0371f:11
#0371a:24
#03815:1300000000000013
#0381b:13000013
#03817:00130000
#03812:00130000
#03918:13000013
#0391b:00130000
#03912:0000001300000000
#03915:0000000000130013
#04212:13
#04218:000013000000000000130000
#04215:000000130000000000000013
#0421b:000000000013000000000000
#08312:0013
#0831b:0023
#08315:23
#08318:23
#0211b:2300000000000013
#02118:00130000
#02115:0000000000001313
#0211a:0000000000330000
#02114:0000003300000000
#02110:41
#02218:0013130000000000
#0221b:00001313
#02216:0000000000130000
#02212:00130000
#02315:00130013
#02312:2313
#02418:00130013
#0241b:0013
#07818:00230000
#07815:00230000
#01058:00530000
#04857:0053
#04856:00530000
#04852:00230000000000000000000000000000
#0515b:0013
#05157:00000053
#05152:00000013
#00258:00620000
#00456:62
#00452:00220000
#01652:5353
#01656:00530053
#0255b:1300005300000000
#02552:14
#0265b:53
#02658:00530000
#02655:00630000
#02852:0013
#02952:0000006300000000
#0295a:14
#03052:63
#03055:00630000
#03058:00530000
#0325b:0013
#04756:0000000053000053
#04752:00000000000000000000002300000000
#0475a:0014
#04952:0014
#04957:0000000063000063
#0495b:00000000000000000000002300000000
#05352:00630063
#05356:0063
#05357:00000063
#0535b:0013
#0545b:6313
#05457:00630000
#05452:00630000
#05456:1313
#0575b:0013
#0595a:6444
#05956:00240000
#05952:34
#06354:00540000
#0635b:0000000053000053
#06357:00000000000000000000002300000000
#06352:0014
#07958:00000023
#07955:00000023
#0795b:63
#07952:63
#07758:0063
#07756:63
#08455:23
#08458:23
#0455b:0000000000000023
#04558:00000053
#04552:0000000000230000
#04555:0063
#04652:0023000000000000
#04655:6313
#0465b:0000002300000000
#04658:00531300
#03655:0013
#06157:0000230000000063
#06156:0063
#0615b:53
#0525b:0013
#05257:00000053
#05252:00000013
#05852:0054
#05856:00000024
#0585a:0044
#00656:00520000
#00858:52
#0085c:00220000
#00955:0000002300000000
#01358:0000002300000000
#01455:00630000
#06256:00630000
#0625b:0063
#06257:00000023
#06452:0063
#0645b:00530000
#06457:00230000000000001300000000000000
#07156:0000000000000063
#07152:0063
#07158:0013
#07552:5434
#07556:00240000
#0755a:44
#0745a:0064
#07456:00000024
#07452:0034
#06952:0000002300005300
#06958:0000000000230000
#06955:0000530013000023
#0695b:00005313
#0705b:0023000000000000
#07058:53135300
#07052:13530000
#07055:0013
#08958:0000001300000000
#08952:0000001300000000
#0855b:23
#08552:00230000
#05055:0013
#05057:00630000
#0505b:00230000000000001300000000000000
#07256:0063
#0725b:0063
#07252:00630000
#07257:00630000
#05557:0000000000000053
#0555b:0053
#05556:0013
#05656:00530000
#05657:0053
#05652:0053
#0565b:00530000
#0335b:53
#03357:0000005300000000
#03352:14
#03456:00630000
#0345b:00630000
#03752:63
#03756:0000006300000000
#0375a:14
#0665b:0013
#06652:00630000
#06656:00230000000000001300000000000000
#03857:00530000
#03852:00530000
#06552:0000000063000063
#06556:00000000000000000000002300000000
#0655a:0014
#08352:0063
#0835b:0053
#08355:63
#07355:0013
#01752:13
#01756:54
#04452:16
#04458:00000016
#0685b:00000013
#06852:0013
#06856:00000063
#0675b:00000013
#06752:0013
#06756:00000063
#07858:00530000
#07855:00130000
#0215b:13
#02352:13
#001380:12220000
#0013a0:0000001200220000
#002380:12320000
#0023c0:0022
#004360:1222
#004320:0032320000000000
#005360:12220000
#005340:0000001200220000
#006360:12320000
#006320:0022
#008380:1222
#0083c0:0032320000000000
#0083a0:0000003200000000
#009350:0000001300000000
#009320:0000000000230000
#010380:00130000
#0103b0:0023
#0113b0:13230000
#011380:0000001300230000
#013380:0000001300000000
#0133b0:0000000000230000
#014350:00130000
#014320:0023
#015320:13230000
#015350:0000001300230000
#016320:1333
#016360:00330033
#017320:23
#017361:14
#0183a1:00240000
#017350:0013
#017320:00000023
#018371:00000013
#0193b1:23
#019341:0000000000000014
#020341:0034003400340000
#020321:00343424
#021351:1323
#021321:00330000
#021341:0000003300000000
#021380:0013
#0213a0:0000000000330000
#0213b0:00000023
#022360:00000013
#023320:23
#0233a1:14343434
#023381:0034003400340034
#0243a1:24
#024320:14343434
#024340:0034003400340034
#025320:24
#0253b0:0000001300000000
#025370:0000000000230000
#0263b0:1323
#026380:00330000
#026351:00130000
#026321:0023
#027361:13
#027321:00230000
#027361:0000001300000000
#027321:0000000000230000
#029321:0000001300000000
#029361:0000000000230000
#030321:1323
#030351:00330000
#030380:00130000
#0303b0:0023
#031370:13
#0313b0:00230000
#031370:0000001300000000
#0313b0:0000000000230000
#0333b0:13
#033370:00230000
#033370:0000001300000000
#0333b0:0000000000230000
#034360:00130000
#034320:0023
#0343b1:00130000
#034371:0023
#0353b1:13
#035371:00230000
#035361:0000001300000000
#035321:0000000000230000
#037321:13
#037361:00230000
#037361:0000001300000000
#037321:0000000000230000
#038371:00130000
#0383b1:0023
#038320:00130000
#038360:0023
#039320:13
#039360:00230000
#039370:0000001300000000
#0393b0:0000000000230000
#041320:13
#041350:00230000
#041380:00000013
#0423b0:23
#042350:0013
#042320:00000023
#0433b0:00130000
#043380:0023
#045350:00001323
#045320:0000000000530000
#045381:00000013
#0453b1:0000000000000053
#046381:23
#046350:13230000
#046320:0053000000000000
#046381:00132300
#0463b1:0000005300000000
#047361:0000000013000033
#047321:00000000000000000000005300000000
#048321:00530000000000002300000000000000
#048361:00330000
#048370:0013
#0483b0:00000023
#049370:0000000013000033
#0493b0:00000000000000000000005300000000
#0503b0:00530000000000002300000000000000
#050370:00330000
#051370:00000013
#0523b0:23
#052370:00000013
#0533b0:23
#053320:00130033
#053360:0033
#054360:23
#053371:00000013
#0543b1:3323
#054371:00330000
#054320:00130000
#054360:0023
#0553b0:0013
#055370:0000000000003333
#0563b0:0033330000002300
#056370:0033
#056361:00130023
#056321:0033
#057361:0013
#057321:00000023
#057371:0000000000000013
#0583b1:0023000000000000
#058321:0014
#058361:00000054
#059321:24
#0593a0:1424
#059360:00540000
#0613b0:1323
#061370:00530000
#061361:0013
#061321:0000000000000023
#061370:0000000000000013
#0623b0:00230000
#062361:00130000
#062321:0023
#0623b0:0013
#062370:00000053
#0633b0:23
#063340:00140000
#063320:00000000003434342400000000000000
#0633b1:0000000013000033
#063371:00000000000000000000005300000000
#064371:00530000000000002300000000000000
#0643b1:00330000
#064320:0013
#064360:00000023
#065320:0000000013000033
#065360:00000000000000000000005300000000
#066360:00530000000000002300000000000000
#066320:00330000
#067360:00000013
#068320:23
#068360:00000013
#069320:23
#069350:00132300
#069320:0000005300000000
#0693b1:00001323
#069381:0000000000530000
#069320:00000013
#069350:0000000000000053
#070320:23
#070381:13230000
#0703b1:0053000000000000
#070320:00130000
#070350:0023
#070381:0013
#0703b1:00000023
#071321:0013
#071361:0000000000003333
#072321:0033330000002300
#072361:0033
#072370:00130023
#0723b0:0033
#0733b0:0013
#073370:00000023
#073320:0000000000000013
#074360:0023000000000000
#0743a0:0014
#074360:00000054
#0753a0:24
#075321:1424
#075361:00540000
#077361:13
#078321:23
#077380:0013
#0783b0:23
#078380:00130000
#0793b0:33
#079380:00003353
#080390:0025
#079321:13
#079351:00003353
#080321:0025
#083351:13
#083321:0033
#084351:53
#084321:0025
#0833b0:0013
#084380:53
#084390:0025
#0853b0:13
#085380:00230000
#085321:00130000
#085351:0023
#085380:0000000013230000
#085351:0000000000130000
#085321:00000023
#085380:0000000000001323
#085351:0000000000000013
#086321:23
#086380:1323000000000000
#086351:0013000000000000
#086321:00230000
#086380:0000132300000000
#086351:0000001323000000
#086380:0013
#0863b0:0000000000230000
#086351:0000000000132300
#086380:00000013
#0863b0:0000000000000023
#086351:0000000000000013
#087351:23
#087380:13
#0873b0:0000000053535353230000000000000000000000000000000000000000000000
#0873a0:00000000000000000053005300530053000000000000000000000000000000000000000000000000000000000000000000000000000000000000000000000000
#087350:0000000000000000000000000000000013000000000000003300545300000000
#087320:0000000000330000
#087340:0000000000000000000000000000000000000000000000000053000000000000
#088350:33530000000033535353330000000000
#088340:0053000000000000000000000053005300530053000000000000000000000000
#088320:00000000330000000000000033530000
#088330:0000000000000000000000000000000000000000000000000053000000000000
#089350:33530000000000000000000000000000
#089340:0053000000000000000000000000000000000000000000000000000000000000
#089320:00000000335323000000000000000000
#089330:0000000000000000005300000000000000000000000000000000000000000000
#0883b1:13530000230000000000000000000000
#0883a1:0053000000000000000000000000000000000000000000000000000000000000
#088381:00000000000013535353230000000000
#088391:0000000000000000000000000053005300530053000000000000000000000000
