This file was generated by Ched 2.7.0.0.
#TITLE ""
#ARTIST ""
#DESIGNER ""
#DIFFICULTY 0
#PLAYLEVEL
#SONGID ""
#WAVE ""
#WAVEOFFSET 0
#JACKET ""
#REQUEST "ticks_per_beat 480"
#00002: 4
#BPM01: 200
#BPM02: 201
#BPM03: 205
#BPM04: 201.5
#00008: 01
#05908: 0002
#06308: 0003
#04508: 0003
#07508: 0004
#TIL00: ""
#HISPEED 00
#MEASUREHS 00
#0031a:0000001200000000
#00315:1200000000120012
#00313:00120000
#00318:00000012
#01018:0000000000000013
#01015:00000013
#0111b:0000130000000013
#01118:0000000000130000
#01115:0000001300001300
#01112:23
#01218:0013000000000013
#01215:00130013
#0121b:0013
#01212:1313
#0511a:0014
#0511b:13
#05112:0013000000001400
#05118:00130000
#05115:0000001300000000
#00016:0000000000000012
#0001a:00000012
#00115:00120000
#0011a:12
#00119:0000001200000000
#00114:0000000000120012
#00118:00000012
#00215:00000012
#00218:0000000000000012
#00418:1200000000000012
#0041b:0032120000000000
#00414:00000012
#00818:00000013
#00815:0000000000000013
#00816:12
#00813:0032120000000000
#00814:0000003200000000
#00915:0000000000130013
#00918:0000001300000000
#00912:00130000
#0091b:23000013
#00910:41
#0161b:2313
#01618:00130013
#01918:0013000000130000
#01915:00131300
#0191b:0000001300000000
#01912:13000013
#02215:00130000
#0221a:0014
#02216:0000000000140000
#02218:0013000000000000
#02212:00000014
#02518:1300000000000013
#02515:00000013
#0251b:0000001300000000
#02612:13
#02615:0000130000000013
#02618:00000013
#02818:00131300
#02815:0000001300001300
#02812:13
#0281b:0000000000000013
#05218:00140000
#05212:0014
#0521a:00000014
#05512:13
#05515:00130000
#05518:0013
#0551b:0000000000000013
#07912:13
#07916:0013
#0771b:13
#07718:0013
#04512:0000000000000014
#04513:00001414
#04514:1400000000140000
#04518:00140000
#04614:0014000000000000
#04613:14142400
#04612:0000001400000000
#03612:0013000000001300
#03618:1300000013000013
#0361b:00130000
#03615:0000001300000000
#0331b:23000013
#03312:0000130000000013
#03318:0000001300000000
#03315:0000000000130000
#03310:41
#08215:13
#08218:0023
#01512:0000130000000013
#01515:0000000000130000
#01518:0000001300001300
#0151b:23
#04412:2400001400000000
#04418:0000001400000000
#04414:000014
#0441a:00000024
#05718:00130000
#0571b:13
#05715:0013
#05712:0000000000000013
#08715:0000000000130000
#08718:00001313
#08812:00000013
#08918:13
#08915:0000131300000000
#08112:0013
#08118:00000013
#08115:13
#0811b:00130000
#03418:13000013
#03415:00130000
#00519:00120000
#00514:12
#00515:0000001200000000
#0051a:0000000000120012
#00516:00000012
#00714:0000001200000000
#00719:1200000000120012
#0071b:0000001200000000
#00716:0012000000001200
#00619:00000012
#00616:0000000000000012
#01415:0000000000000013
#01418:00000013
#01318:0000000000130013
#01315:0000001300000000
#0131b:00130000
#01312:23000013
#0171b:13
#01716:00000014
#0211b:00130000
#02114:24
#02110:41
#0271b:1300000000000013
#02715:0000001300000000
#02915:1300000000000013
#02918:00000013
#02912:0000001300000000
#0301b:13
#03018:0000130000000013
#03015:00000013
#03215:0000130013000013
#03212:13
#03218:0000001300000000
#0321b:0013000000001300
#03112:13
#03118:0000001300000013
#03115:00000013
#03512:13
#0351b:13
#03515:0000130000000013
#03518:0000001300000000
#0391b:13
#03912:13
#03918:00130013
#03915:0000001300000013
#03815:13000013
#03818:00130000
#04218:14
#04214:00140000
#0421a:0014
#04217:0000000000000014
#04112:14
#04115:0000001400000000
#04314:00001414
#0431a:000014
#04318:000000000000000000000014
#04715:0000230000000013
#0471b:0000230000000013
#04718:2313
#04712:2313
#0471f:0021
#04815:0013
#0481b:0013
#04810:0041
#04918:0000130000000013
#04912:0000130000000013
#04915:1313
#0491b:1313
#05018:0013
#05012:0013
#05015:0033000000000000
#0501b:0033000000000000
#05612:0013
#0561b:0013
#05312:0014
#05315:00140000
#05417:00140000
#0541a:1424
#0591a:0014
#05917:14
#06016:14
#0581a:0014
#06712:1324
#0671b:0013000000000000
#06715:00130000
#06718:0000001300000000
#0671a:00000024
#0711b:13
#07118:00130000
#07115:0013
#07112:0000000000000013
#07315:00130000
#07312:13
#07318:0013
#0731b:0000000000000013
#06318:0000130000000013
#06318:00130000
#06318:00130000
#06312:0000230000000013
#0631b:1313
#0631b:13
#0631b:13
#06315:2323
#06310:0041
#06418:0013
#06412:0023
#06515:0000130000000013
#0651b:0000230000000013
#06512:1313
#06518:2323
#06615:0013
#0661b:0023
#06618:0033000000000000
#06612:0033000000000000
#07512:0014
#07515:14
#07510:0041
#07616:14
#07412:0014
#07419:0033000000000000
#0831b:13
#08317:0013
#08415:00000013
#08518:13
#08512:00130000
#08018:00000013
#0721b:0013
#07212:0013
#0691a:0014
#06917:00240000
#07015:00140000
#07012:24
#06112:1313
#0611b:13
#06115:0000000000000033
#06215:13330000
#03712:23000013
#0371b:0000130000000013
#03715:0000001300000000
#03718:0000000000130000
#0371f:11
#07815:00230000
#06814:00240000
#0681a:0024
#06812:00000024
#0401a:24
#04018:003400003400
#00458:52
#0045b:00220000
#0165b:6363
#01658:00630063
#02558:53
#0255b:0000005300000000
#02652:63
#02655:00630000
#02858:0013
#07952:53
#07956:0053
#0775b:63
#07758:0063
#04552:0000000000000024
#04553:00005464
#04554:0000000000240000
#04654:0024000000000000
#04653:54641400
#04652:0000002400000000
#03658:0013
#05152:00000014
#0525a:00000014
#03455:00230000
#00856:62
#00853:00220000
#0175b:63
#01756:00000024
#0275b:53
#02755:0000005300000000
#02955:63
#02952:0000006300000000
#0305b:53
#03058:00530000
#03255:0013
#03152:63
#03158:0000006300000000
#04152:54
#04155:0000002400000000
#0425a:0054
#04257:0000000000000024
#04755:0000000000000053
#0475b:0000000000000053
#04758:0053
#04752:0053
#04958:0000000000000063
#04952:0000000000000063
#04955:0063
#0495b:0063
#05058:0013
#05052:0013
#05558:0053
#0555b:0000000000000053
#05352:0064
#05355:00540014
#05457:00640000
#0545a:5414
#05755:0063
#05752:0000000000000063
#0595a:0064
#05957:64
#06056:24
#0585a:0064
#06358:0000000000000063
#06352:0000000000000063
#0635b:0063
#06355:0063
#06555:0000000000000053
#0655b:0000000000000053
#06552:0053
#06558:0053
#06655:0013
#0665b:0013
#07155:0063
#07152:0000000000000063
#07358:0053
#0735b:0000000000000053
#07552:0054
#07555:54
#07656:24
#07452:0054
#0835b:63
#08357:0063
#0695a:0064
#06957:00640014
#07055:00640000
#07052:6414
#06152:0053
#06255:23
#06252:0013
#03858:00230000
#03558:0000005300000000
#03955:0000006300000000
#02154:14
#04452:14
#0445a:00000014
#07855:00630000
#0675a:00000014
#06852:00000014
#08258:0053
#002380:1222
#0023b0:00320000
#004380:1222
#0043b0:0032320000000000
#006360:1222
#006330:00320000
#008360:1222
#008330:0032320000000000
#008340:0000003200000000
#0103b0:1323
#010380:00330000
#014320:1323
#014350:00330000
#0163b0:1333
#016380:00330033
#0173b0:33
#017360:00000054
#0183a0:0024
#019380:0000000000000014
#020380:0034003400340000
#020390:00343424
#021350:0013
#021340:0000000000330000
#021330:00000033
#021320:0000000000000023
#023380:14343434
#023390:0034003400340034
#024380:24
#024341:14343424
#024331:0034003400340000
#025381:1300000000230000
#0253b1:0000333300000000
#026321:1323
#026351:00330000
#0273b1:13
#027381:00230000
#027351:0000001300000000
#027321:0000000000230000
#029351:1300000000230000
#029321:0000333300000000
#0303b1:1323
#030381:00330000
#031321:13
#031351:00230000
#031381:0000001300000000
#0313b1:0000000000230000
#034351:00130000
#034321:0023
#035381:0000001300000000
#0353b1:0000000000230000
#038381:00130000
#0383b1:0023
#039351:0000001300000000
#039321:0000000000230000
#0403a1:140000000024
#040381:003400003400
#040371:000034340000
#041321:14000024
#041351:0000003400000000
#0423a1:0014
#042371:0000000000000034
#0433a1:00240000
#045331:00001434
#045341:0000000000540000
#045321:0000000000000054
#046331:34342400
#046341:0054000000000000
#046321:0000005400000000
#047321:0013
#047351:0000000000000033
#048321:00230000
#047380:0013
#0473b0:0000000000000033
#048380:00230000
#0493b0:0013
#049380:0000000000000033
#0503b0:0033230000000000
#049351:0013
#049321:0000000000000033
#050351:0033230000000000
#053351:00140024
#053321:0034
#0543a1:1424
#054371:00340000
#055381:0013
#0553b1:0000000000000033
#056381:00230000
#057351:0013
#057321:0000000000000033
#058351:00230000
#0583a1:0014
#059371:34
#0593a1:0034
#060361:54
#0603a1:0024
#061321:0013
#061351:0000000000000033
#062351:53330000
#062321:0023
#0633b1:0013
#063381:0000000000000033
#0643b1:00230000
#063350:0013
#063320:0000000000000033
#064350:00230000
#065320:0013
#065350:0000000000000033
#066320:0033230000000000
#065381:0013
#0653b1:0000000000000033
#066381:0033230000000000
#069371:00140024
#0693a1:0034
#070321:1424
#070351:00340000
#071351:0013
#071321:0000000000000033
#072351:00230000
#073381:0013
#0733b1:0000000000000033
#074391:0033000000000000
#074381:00230000
#074321:0014
#075351:34
#075321:0034
#076361:54
#076321:0024
#0773b1:13
#077381:0033
#0783b1:23
#078351:00130000
#079321:33
#079361:0033
#080321:0025
#082381:0013
#0833b1:33
#083371:0033
#084391:0025
#085381:00001434
#085391:0000000000340034
#086381:34342400
#086391:0034003400000000
#086340:00001434
#086350:0000000000340034
#087340:34240000
#088320:14545454240000000000000000000000
#088330:0054005400540054000000000000000000000000000000000000000000000000
#0883a0:00000000000014545454240000000000
#088390:0000000000000000000000000054005400540054000000000000000000000000
