This file was generated by Ched 2.7.0.0.
#TITLE ""
#ARTIST ""
#DESIGNER ""
#DIFFICULTY 0
#PLAYLEVEL
#SONGID ""
#WAVE ""
#WAVEOFFSET 0
#JACKET ""
#REQUEST "ticks_per_beat 480"
#00002: 4
#BPM01: 200
#BPM02: 201
#BPM03: 205
#BPM04: 201.5
#00008: 01
#05908: 0002
#06308: 0003
#04508: 0003
#07508: 0004
#TIL00: ""
#HISPEED 00
#MEASUREHS 00
#04116:130000000013000013130000
#0411b:13001313
#04112:000000000000130000000000000000000000000000000013
#04117:000000000013000000000000000000000000000000000000
#0171b:00130013
#01712:1300000000000013
#01719:0000001300130000
#01717:0013
#01718:26
#0181b:00130000
#01812:0013130013000000
#01816:0000000000000013
#0191b:00131313
#01915:0000001300000013
#01912:13131313
#01918:0013000000130000
#02015:0013131300000000
#02012:0000000013131300
#02317:24141414
#02512:1400001300130000
#02517:0000131300000000
#0251b:0013
#02515:00000013
#02518:0000000000000013
#0251a:24
#04412:001300161300
#04415:26160026
#04418:000000000013000000000000
#0441b:000000000000230000000013
#05116:1313
#05114:0013001300000000
#05112:00130014
#0521a:00131400
#05212:00130014
#05216:1313
#05218:0013001300000000
#05316:1313
#0531a:00130000
#05318:0013001300000000
#05312:00130023
#05319:0000000000130000
#05317:00000013
#05314:0000000000000013
#0531b:0023
#06015:16130016
#06018:0000001600130000
#0601b:00130000
#06012:0000000000130000
#05918:1600000026000013
#05912:2600160000160013
#05915:0013
#08215:0000000000130000
#08212:0000000013000013
#0821b:1300130013000013
#08216:0000001400000000
#08218:00000013
#04515:160000001300000000000000120000000000000000140000
#0451b:000000000013000000000000
#04518:00160000
#04517:0000000000130000
#04519:00000013
#04512:00230000
#05012:00001314
#0501a:0000000000000014
#0501b:0013130000000000
#05017:00130000000000000000000000000000
#06116:0013
#06117:0000001300000013
#06112:0016001300130023
#06115:13
#0611b:13002313
#0811b:13130000
#08116:00000013
#08114:0000000000130013
#08112:0013
#08118:0013001300000000
#08018:00000013
#08015:0000000000000013
#08012:00000013
#05812:00141600
#05818:00002616
#05816:0014000000000000
#0581a:00140000
#0431b:000000000000000000000013
#04318:0014
#04316:000014000000000000140000
#04317:13
#04312:000000240000000014000000
#04314:000000000014000000000000
#0431a:00240000
#08717:0000000000120000
#0871c:00001212
#08714:14140000
#08718:0014001400000000
#08817:00000012
#08912:12
#08917:0000121200000000
#05417:00130013
#05416:1313
#05419:0013000000000013
#05414:0000001300000000
#05412:00230013
#0541b:2323
#04812:0013130000000000
#04816:00130000000000000000000000000000
#0481b:0013
#04818:00000013
#04817:0013
#04815:0000000000000013
#04810:0041
#04712:0013
#04717:00000000000000000000001300000000
#0471b:0000000000001313
#04714:00140014000000000000000000000000
#04718:2414251526000000
#04713:00000000001500150000000000000000
#0471f:0021
#04212:000000000000130000000013
#04216:00130013
#0421b:000000001300000000000000000000000013000000000000
#04217:130000000013130000000000
#01615:00001600000016000000001300130013
#0161b:23132300
#01612:00231300
#01618:0000000000132313
#02112:26130013
#0211b:1300000000000013
#02114:0000001300130000
#02116:0013
#02110:41
#02212:00130000
#0221b:0013130013000013
#04618:0000000026001313
#04615:00000000000000000000000000130013
#04613:14
#04612:0000001616000000
#04616:0015000000000000
#04619:00150000
#0491b:13131300
#04912:1300130016001313
#04918:0013000000000000
#04915:0000001300000000
#04916:00000000000000000000001300000000
#06218:0000000000141400
#06214:00000000000013000000001400000000
#06212:0013000023000016
#06216:00130000
#0621b:13232300
#0711b:1313000000001300
#07112:0000131313000013
#07117:0000000000130013
#07118:0026
#0001a:00000012
#0001c:0000000000000012
#00016:00000012
#0011c:00000012
#00119:0000000000000012
#00216:12
#0021a:00000012
#00214:0000000000000012
#00312:12000012
#00318:12000012
#00316:0000001200000000
#0031c:0000001200000000
#00314:0000000000120000
#0031a:0000120000000012
#00416:12
#00412:0000120000000012
#0041c:1212
#00418:00120012
#00414:0032000000001200
#00512:00000012
#00515:0000000000000012
#00618:12
#00614:00000012
#0061a:0000000000000012
#0071c:12000012
#00716:12000012
#00712:0012000000000000
#0071a:0000000000120000
#00714:0000000000000012
#00818:12
#0081c:00120000
#00812:1212
#00816:00120013
#0081b:00000013
#00819:0000000000000013
#0081a:0032003200000000
#00912:2313000013130000
#00915:00130013
#0091b:00000013
#00919:0000000000000013
#00910:41
#01012:2313000013130000
#01015:00130013
#01018:0000000013000013
#0111b:2313000013130000
#01118:00130013
#01115:0000000000000013
#0121b:2313000013130000
#01215:0013001300130013
#01212:1313
#01218:00130013
#01312:2313000013130000
#01315:00130013
#0131b:1300001300001300
#01319:0000000000000013
#01317:0013000013000000
#01412:2313000013130000
#01415:00130013
#01418:0000000013000013
#01417:13
#0261b:13
#02612:1313
#02616:0013130000000000
#02815:00000013
#02818:0022220000000013
#02812:0000001200000000
#0281c:0000001200000000
#02816:22220000
#0291b:1300001300130000
#02916:0000131300000000
#02912:2413
#02918:00000013
#02915:0000000000000013
#03012:13
#0301b:13001313
#03017:0013130000000000
#03016:00000013
#03019:0000000000000013
#03014:0000000000000013
#03112:1300001300000013
#03117:1300001300000000
#0311b:00000013
#03116:00000013
#0321a:0014
#03212:00131400
#03216:0000001400000000
#0321b:00130000
#03215:0013000000000013
#03218:13000013
#0331b:0000001300130000
#03318:00130013
#03312:13000013
#03315:0000001300000013
#0331a:24
#03310:41
#0341b:1300000000000013
#03412:13130013
#03416:0013130000000000
#03417:00000013
#03512:1300001300130000
#03517:13000000000013000000000000130000
#0351b:0000130013000013
#03516:0013000000000000
#03618:1300000000000013
#03615:0013000000001300
#03715:00130013
#0371b:13000013
#03718:0000001300000013
#03712:2400001300130000
#0371f:11
#0381b:13130013
#03816:00000013
#03812:1300000000000013
#03817:0013130000000000
#03914:00000013
#03912:0000130013000013
#03917:0013000000000013
#0391b:1300001300130000
#03916:1300001300000000
#0401b:001300000000
#04016:281414000000
#04012:000000281414
#04017:000013
#05515:0016001600000000
#05512:00132300
#0551b:1300130013000013
#05516:0000000000001313
#05517:0000000000130000
#05612:0013130000001300
#05617:1313
#05616:0000001300000000
#0561b:0000130000130000
#05619:0000000000000013
#0571b:1313
#05717:0013001300000000
#05716:1300130000000013
#05712:0013001300001313
#06716:14001424
#06718:0014001400000000
#0671a:00140024
#06712:0024
#0661a:00000014
#06612:0013230000000014
#06616:13240000
#0661b:0013
#0641b:0013130000001300
#06417:13
#06415:0000000000000013
#06412:0013
#06416:00240000
#0631b:0013
#06316:0000000000130024
#06312:0016261626001313
#06318:26000016001600160000000000000000
#06310:0041
#06512:13231300
#06518:0013000026000000
#0651b:2300130000001313
#06515:0000001300000000
#06517:0000000000130000
#06516:0000000000000024
#06916:14242424
#06912:0014000024140000
#0691a:0000241400002414
#06816:14141424
#0681a:0000141400002400
#06812:0014000024000000
#0721b:0013001300001300
#07217:13130000
#07215:0013
#07212:0000130000130000
#07216:0000000000000013
#0731b:1300001300001313
#07317:0013000000000013
#07312:0013000013000000
#07318:00130000
#07316:1300001300000000
#07416:0014000000000000
#0741a:00140000
#07418:0016
#07412:00142616
#07512:1626
#07518:2600160013260000
#07515:0000000000000013
#0751b:0000000000000013
#07510:0041
#07615:2600000000132600
#07612:0000132600000000
#0761b:0000000000130000
#07618:00130000
#07718:1326000000260000
#07712:1300000014160000
#07716:0000001300000014
#0771b:0000001300000000
#07012:2414000024001400
#0701a:0000241424001400
#07016:2400240000000014
#07812:2600001614000000
#0781a:00140000
#07818:1600002600001400
#07816:0000000000140000
#07814:00000000000000000000001400001400
#02414:00151515
#07916:00000013
#07914:0014000000130013
#07912:00141300
#0791b:00000013
#07918:1426
#0791a:00140000
#08512:13131300
#08515:0013001300000000
#0861b:0013
#08616:0000000000140000
#08618:00000000000000000000001400001400
#08614:00000014
#08415:00000013
#08418:0000000000000013
#0841b:00000013
#08317:00000013
#08319:0000000000130013
#0831b:0013
#08312:2c00002c00002c002600000013000000
#02718:0000000012000022
#02712:0000000000240000
#0271a:0000000000240000
#01512:27
#01518:0000002300000000
#01514:00000023
#0151b:23000023
#02552:14
#02557:0000005300000000
#0255b:0023
#0255a:14
#05356:0063
#05357:00000053
#0535b:0013
#05352:00000013
#05958:6646
#05952:36260000
#06156:0063
#06157:0000000000000063
#06152:0000000000230000
#0525a:0044
#05252:00000034
#05852:00145600
#05858:00004626
#0585a:00140000
#08957:0000001200000000
#0895c:0000001200000000
#04852:00630000
#04856:00230000000000000000000000000000
#0485b:0013
#04857:0063
#04752:0063
#04757:00000000000000000000002300000000
#0475b:0000000000000063
#04758:0016
#04156:13000063
#0415b:53000013
#04157:000000000023000000000000000000000000000000000000
#04152:000000000000000000000000000000000000000000000023
#04252:0013
#04257:0053
#0425b:000000000000000000000000000000000023000000000000
#0505b:00530000
#05057:00230000000000000000000000000000
#05052:0013
#05056:0013
#0495b:0053
#04956:00000000000000000000002300000000
#04952:0000000016000053
#05152:00000034
#0515a:0044
#05456:6363
#05457:00530000
#05452:00130023
#0545b:1313
#00456:62
#00452:00220000
#00858:52
#0085c:00220000
#00955:00130013
#01158:00130013
#01455:00130013
#01457:53
#0145b:00130000
#01355:00130013
#0135b:5300005300000000
#01357:0023000023000000
#02652:53330000
#02656:0023530000000000
#02956:0000006300000000
#02952:1423
#0305b:63430000
#03057:0023630000000000
#03152:5300005300000000
#03157:5300005300000000
#0325a:0044
#03252:0034
#03452:53530000
#03456:0023530000000000
#03552:5300000000630000
#03557:00000000000053000000000000230000
#03556:0023000000000000
#0355b:0023
#03352:23
#03355:0000002300000000
#0335a:14
#0555b:0000000053000053
#05557:0000000000230000
#05552:0013
#05657:2363
#05652:00633300
#05656:0000002300000000
#0565b:0000000000230000
#0575b:5323
#05757:0023000000000000
#05756:0000530043000063
#05752:0000002300000000
#0645b:00530000
#06457:23
#06452:0063
#06456:0013
#0635b:0053
#06356:0000000000230000
#06352:0000000016000053
#07152:0000000063000063
#07157:0000000000230000
#07158:0016
#07257:23630000
#0725b:0000002300000000
#07255:0053
#07252:0000000000230000
#07258:0033
#0745a:00440000
#07458:0066
#07452:00343626
#07552:5636
#07558:46260000
#01055:00130013
#0105b:00130000
#01258:00130013
#06656:23
#0665b:0013
#06652:00630000
#06657:0013
#06552:0063
#06557:0000000000230000
#0655b:0000000000000063
#06558:0016
#0865b:0013
#0385b:63630000
#03857:0023630000000000
#04452:0016
#04455:16000016
#04558:00160000
#04555:0000000062000024
#04557:0000000000230000
#04559:00000053
#07352:0023000023000000
#07358:00630000
#0735b:0000002300000000
#07356:53
#07357:0000000033000053
#0375b:23
#03758:0000002300000000
#03752:14
#04653:64
#04652:0000002636000000
#04656:0025000000000000
#04659:00550000
#04658:0046
#0395b:63
#03957:0023000000000000
#03956:0000006300000000
#03952:0023
#0625b:23
#02852:0000002200000000
#0285c:0000002200000000
#02856:00620000
#02858:00520000
#01758:16
#0675a:00000044
#06752:0034
#02152:16
#06852:0034
#0685a:00000044
#06952:0014
#06956:00645464
#0695a:00000014
#07052:1434
#07056:54640000
#0705a:00144400
#07958:0016
#02357:14
#08352:0016
#0365b:0043
#03652:0033
#001360:12
#001320:00220000
#001381:12220000
#001361:0000001200000000
#001321:0000000000220000
#0013a0:0000001200220000
#0023c0:1222
#002370:00320000
#002321:00120000
#002371:0022
#004361:12
#004341:0032000000000000
#004321:00320000
#004371:0022
#005381:12
#0053c1:00220000
#005360:12220000
#005380:0000001200000000
#0053c0:0000000000220000
#005341:0000001200220000
#006321:1222
#006371:00320000
#0063c0:00120000
#006370:0022
#007380:0012000000000000
#0073c0:0000002200000000
#007361:0000001200000000
#007321:0000000000220000
#008381:12
#0083a1:0032003200000000
#0083c1:00320000
#008371:0022
#009371:13
#0093b1:00230000
#009371:0000001300000000
#0093b1:0000000000230000
#010371:13
#0103b1:00230000
#011361:13
#011321:00230000
#011361:0000001300000000
#011321:0000000000230000
#0133b1:13230000
#013371:0033000000000000
#0133b1:0000001300230000
#013371:0033
#014371:13
#0143b1:00230000
#015321:170000000000000000000000000000000000000000000000000000000000000000000000000000000000000000000000000057530000000000000000000000000000000000000000000000000000000000000000000000000000000000000000000000000000000000000000000000000000000000000000000000000000000000000000000000000000000000000000000000000000000000000000000000000000000000000000000000000000000000000000000000000000000000535700000000000000000000000000000000000000000000000000000000000000000000000000000000000000000000000000270000000000000000000000000000000000000000000000000000000000000000000000000000000000000000000000000000000000000000000000000000000000000000000000000000000000000000000000000000000000000000000000000000000000000000000000000000000000000000000000000000000000000000000000000000000000000000000000000000000000000000000000000000000000000000000000000000000000000000000000000000000000000000000000000000000000000000000000000000000000000000000000000000000000000000000000000000000000000000000000000000000000000000000000000000000000000000000000000000000000000000000000000000000000000000000000000000000000000000000000000000000000000000000000000000000000000000000000000000000000000000000000000000000000000000000000000000000000000000000000000000000000000000000000000000000000000000000000000000000000000000000000000000000000000000000000000000000000000000000000000000000000000000000000000000000000000000000000000000000000000000000000000000000000000000000000000000000000000000000000000000000000000000000000000000000000000000000000000000000000000000000000000000000000000000000000000000000000000000000000000000000000000000000000000000000000000000000000000000000000000000000000000000000000000000000000000000000000000000000000000000000000000000000000000000000000000000000000000000000000000000000000000000000000000000000000000000000000000000000000000000000000000000000000000000000000000000000000000000000000000000000000000000000000000000000000000000000000000000000000
#015381:000000000000000000000000000000000000000000000000000000000000000000000000000000000000000000000000000000000000000000000000000000000000000000000000000000000000000000000000000000000000000000000000000000000000000000000000000000000000000000000000000000000000000000000000000000000000000000000000000000000000000000000000000000000000000000000000000000000000000000000000130000000000000000000000000000000000000000000000000000000000000000000000000000000000000000000053000000000000000000000000000000000000000000000000005300000000000000000000000000000000000000000000000000000000000000000000000000000000000000000000230000000000000000000000000000000000000000000000000000000000000000000000000000000000000000000000000000000000000000000000000000000000000000000000000000000000000000000000000000000000000000000000000000000000000000000000000000000000000000000000000000000000000000000000000000000000000000000000000000000000000000000000000000000000000000000000000000000000000000000000
#015341:000000000000000000000000000000000000000000000000000000000000000000000000000000000000000000000000000000000000000000000000000000000000000000000000000000000000000000000000000000000000005700000000000000000000000000000000000000000000000000000000000000000000000000000000000000000000000000000000000000000000000000000000000000000000000000000000000000000000000000000000000000000000000000000000
#015351:000000000000000000000000000000000000000000000000000000000000000000000000000000000000000000000000000000000000000000000000000000000000000000000000000000000000000000000000000000000000000000000000000000000056000000000000000000000000000000000000000000000000000000000000000000000000000000000000000000000000000000000000000000000000000000000000000000000000000000000000000000000000000000000000
#015341:000000000000000000000000000000000000000000000000000000000000000000000000000000000000000000000000000000000000000000000000000000000000000000000000130000000000000000000000000000000000000000000055
#015361:000000000000000000000000000000000000000000000000000000000000000000000000000000000000000000005353
#015331:0000000000000000000000000000000000000000000000000000000000000056
#016361:23
#0153b0:00000013
#015390:0000000000000023
#017361:00130023
#017321:0033
#0173b1:0000000000000013
#018361:0023000000000000
#018361:0013
#0183b1:0000000000230000
#018360:0000000000130000
#018320:00000023
#018361:00000013
#0183b1:0000000000000000000000000000000000000000000000000000000033535353
#0183a1:00000000000000000000000000000000000000000000000000000000000000000000000000000000000000000000000000000000000000000053005300530053
#0193b1:23
#019381:0000000000000013
#020381:0033003300330000
#0203b1:00333323
#021371:00130023
#0213b1:0033
#021321:0000000000000013
#022371:0023000000000000
#022371:0013
#022321:0000000000230000
#022370:0000000000130000
#0223b0:00000023
#022371:00000013
#022321:0000000000000023
#023321:14343434
#023371:0034003400340034
#024321:24
#0243a0:14343434
#024340:0035003500350035
#0253a0:24
#025370:0000001300230000
#0253b0:0053
#026320:13230000
#026360:0053000000000000
#026361:00130000
#0263b1:0023
#0263c1:00000012
#0263a1:0000000000000022
#026360:0000000000000012
#027340:22
#0273b1:12
#027391:0022000000000000
#027350:0012000000000000
#027330:00220000
#0273a1:00120000
#027381:0000002200000000
#027340:0000001200000000
#027320:0022
#028360:00122200
#028320:0000003200000000
#028381:00122200
#0283c1:0000003200000000
#029361:0000001300230000
#029321:0053
#0303b1:13230000
#030371:0053000000000000
#030370:00130000
#030320:0023
#031320:13
#031360:00230000
#031371:13
#0313b1:00230000
#031321:0000001300000000
#031361:0000000000230000
#031370:0000001300000000
#0313b0:0000000000230000
#033320:13
#033350:00230000
#033350:0000001300000000
#033380:0000000000230000
#034320:13530000
#034360:0053000000000000
#034370:0023
#034361:00130000
#0343b1:0023
#035321:13230000
#035361:0053000000000000
#035371:0000001300230000
#0353b1:0053
#035320:0000000000130000
#035370:00000000000000000000000000530000
#036320:23
#036320:00130000
#0363b0:0023
#0363b1:00130000
#036321:0023
#0373b1:13
#037381:00230000
#037381:0000001300000000
#037351:0000000000230000
#0383b1:13530000
#038371:0053000000000000
#038361:0023
#038370:00130000
#038320:0023
#0393b0:13230000
#039370:0053000000000000
#039360:0000001300230000
#039320:0053
#0413b0:130000000023000000000000
#041370:000000000053000000000000000000000000000000000000
#041360:00000013
#041320:000000000000000000000000000000000000000000000053
#042360:002300000000
#042370:000000000000130000000023
#0423b0:000000000000000000000000000000000053000000000000
#045350:0012
#045370:0000000000530000
#045340:00000023
#045391:00000013
#045351:0000000000000054
#046391:24
#046330:14
#046360:0055000000000000
#046320:00250000
#046391:00150000
#046321:0000005600000000
#046381:0026
#047321:0000000013000023
#047371:00000000000000000000005300000000
#0473b0:0000000000000013
#048360:00530000000000000000000000000000
#0483b0:00230000
#048321:00130023
#048371:0033
#0493b1:0000000013000023
#049361:00000000000000000000005300000000
#049320:0000000000000013
#050370:00530000000000000000000000000000
#050320:00230000
#0503b1:00130000
#050361:0023
#0513a1:1424
#051381:0034003400000000
#051361:00340000
#051371:00000013
#0513b1:0000000000000033
#0523b1:23
#052371:00000013
#0523b1:0000000000000033
#0533b1:23
#053361:0013
#053321:00000023
#053370:00000013
#0543b0:23
#054361:13
#054321:00230000
#054370:00130000
#0543b0:0023
#054361:0013
#054321:00000053
#055361:23
#0553b1:0000000013003333
#055371:0000000000530000
#056371:53
#0563b1:0023000000000000
#056321:00132300
#056361:0000005300000000
#056370:00001323
#0563b0:0000000000530000
#0573b0:13230000
#057370:0053000000000000
#057361:00132300
#057321:0000005300000000
#0573b0:0013
#057360:00000023
#057360:0000000000000013
#0583b0:0023000000000000
#058320:0016
#058380:00000056
#059320:26
#059381:1626
#059321:00560000
#061361:00001323
#061321:0000000000530000
#061371:0000000000000013
#0623b1:53
#062371:0023000000000000
#0633b1:00001323
#063361:0000000000530000
#063321:0000000000000013
#064371:53
#064321:0023000000000000
#0643b1:00130000
#064361:0023
#064320:0013
#064370:00000023
#065320:00001323
#065370:0000000000530000
#0653b0:0000000000000013
#066360:53
#0663b0:0023000000000000
#066320:00130000
#066370:0023
#067320:1424
#067340:0034003400000000
#067360:00340000
#067360:00000014
#067320:0000000000000034
#068320:24
#068360:00000014
#068320:0000000000000034
#069320:24
#069360:00140000
#069320:0000002400000000
#069360:0014
#0693a0:0000000000240000
#069360:00000014
#069320:0000000000000024
#070360:14
#0703a0:0024000000000000
#070360:00140000
#070320:0000002400000000
#071360:1323000000000000
#071370:0000132300000000
#071320:0000000013003333
#071370:0000000000530000
#072370:53
#072320:0023000000000000
#072370:00130000
#0723b0:0000005300000000
#072380:0023
#072351:0013
#072321:0000000000530000
#072361:00000023
#073361:13
#073321:0053000000000000
#073351:00230000
#073380:00130000
#0733b0:0000005300000000
#073370:0023
#073321:0013
#073371:00000023
#073371:0000000000000013
#074321:0023000000000000
#074381:0016
#074321:00000056
#075381:26
#075320:1626
#075380:00560000
#080320:13230000
#0803b1:13
#080361:00230000
#080361:0000001300000000
#0803b1:0000000000230000
#080320:0000001300230000
#081320:1323000000000000
#081350:0000132300000000
#0813b0:00001323
#082320:13230000
#0843b0:13230000
#084321:13
#084371:00230000
#084371:0000001300000000
#084321:0000000000230000
#0843b0:0000001300230000
#0853b0:1323000000000000
#085380:0000132300000000
#085380:0013
#0853b0:0000000000230000
#085351:0000000000130000
#085321:00000023
#085370:00000013
#0853b0:0000000000000023
#085361:0000000000000013
#086321:23
#086360:13
#0863b0:0023000000000000
#086371:0013000000000000
#086321:00230000
#086360:00130000
#0863b0:0000002300000000
#086371:0000001300000000
#086321:0023
#087371:0000000000000000000000000000000012000000000000003200535200000000
#087321:0000000000320000
#087361:0000000000000000000000000000000000000000000000000052000000000000
#088371:32520000000000000000000000000000
#088361:0052000000000000000000000000000000000000000000000000000000000000
#088321:00220000
#0883c0:12520000220000000000000000000000
#0883b0:0052000000000000000000000000000000000000000000000000000000000000
#088360:00000000000012525252220000000000
#088350:0000000000000000000000000052005200520052000000000000000000000000
#088381:00000000000012525252320000000000
#088391:0000000000000000000000000052005200520052000000000000000000000000
#0883c1:00000000000000000000000032520000
#0883b1:0000000000000000000000000000000000000000000000000052000000000000
#089371:32520000000000000000000000000000
#089381:0052000000000000000000000000000000000000000000000000000000000000
#0893c1:00000000325222000000000000000000
#0893b1:0000000000000000005200000000000000000000000000000000000000000000
