This file was generated by Ched 2.7.0.0.
#TITLE ""
#ARTIST ""
#DESIGNER ""
#DIFFICULTY 0
#PLAYLEVEL
#SONGID ""
#WAVE ""
#WAVEOFFSET 0
#JACKET ""
#REQUEST "ticks_per_beat 480"
#00002: 4
#BPM01: 200
#BPM02: 201
#BPM03: 205
#BPM04: 201.5
#00008: 01
#05908: 0002
#06308: 0003
#04508: 0003
#07508: 0004
#TIL00: ""
#HISPEED 00
#MEASUREHS 00
#0011a:14
#00114:0014
#0021a:14
#00214:0014
#00512:14
#00518:0014
#00612:14
#00618:0014
#0091a:14
#00914:0014
#00910:41
#01018:14
#01012:0014
#0111a:14
#01114:0014
#01312:14
#01318:0014
#01414:14
#0141a:0014
#01512:14
#01518:0014
#0171a:1414
#01814:1414
#01918:1414
#02012:1414
#0211a:1414
#02110:41
#02214:1414
#02318:1414
#02412:1414
#0251a:14
#02514:0014
#0261a:14
#02614:0014
#02912:14
#02918:0014
#03012:14
#03018:0014
#03318:14
#03312:0014
#03310:41
#0341a:14
#03414:0014
#03518:14
#03512:0014
#03714:14
#0371a:0014
#0371f:11
#03812:14
#03818:0014
#03914:14
#0391a:0014
#0441a:14
#04414:0014
#04518:14000024
#04514:0024
#0471a:2414
#04714:00000014
#04712:24
#0471f:0021
#04819:14
#04814:00140000
#04818:0014
#04810:0041
#04912:1414
#0491a:14
#04918:00000014
#05013:14
#05018:00140000
#05014:0014
#0511a:14
#05114:0014
#05218:14
#05212:0014
#0531a:14
#05314:0024
#05318:00000024
#05518:0014
#05512:24000014
#0551a:24
#05619:14
#05613:00140000
#0561a:0014
#0571a:14000014
#05712:14
#05714:0014
#05813:14
#05819:00140000
#05812:0014
#0591a:1414
#05912:1414
#06118:14
#06114:0014
#06218:14
#06214:0014
#06318:14
#06314:00140014
#0631a:0024
#06310:0041
#06419:14
#06413:00140000
#06418:0014
#0651a:14
#06512:1414
#06518:00000014
#06613:14
#06619:00140000
#06614:0014
#0671a:14
#06712:14
#06718:0014
#06814:14
#0681a:0014
#06912:14
#06918:0024
#06914:00000024
#07114:14
#07118:00140014
#07112:0024
#07213:14
#07219:00140000
#07214:0014
#07312:14
#0731a:1414
#07314:00000014
#07419:14
#07413:00140000
#07418:0014
#07512:1424
#0751a:1424
#07510:0041
#0771a:14
#07714:0014
#07818:14
#07812:0014
#0791a:14
#07914:0014
#08118:14
#08112:0014
#0821a:14
#08214:0014
#08318:14
#08312:0014
#08518:14
#08514:0014
#0861a:14
#08612:0014
#08718:14
#08713:00000034
#06014:14
#06018:14
#07614:14
#07618:14
#08012:14
#08414:14
#04614:2424
#04618:00240000
#05414:2424
#05418:00240000
#07018:2424
#07014:00240000
#0041a:34
#0031a:0034
#00812:34
#00712:0034
#0281a:34
#0271a:0034
#03212:34
#03112:0034
#08812:34000034
#08913:34
#04654:0014
#05454:0014
#07058:0014
#06054:24
#06058:24
#0595a:0054
#05952:0064
#07654:24
#07658:24
#07954:0064
#08052:24
#08352:0054
#08454:24
#0755a:0054
#07552:0054
#0033a0:1434
#0043a0:34
#004380:0024
#007320:1434
#008320:34
#008340:0024
#012380:1424
#016340:1424
#027380:14
#0273a0:0034
#0283a0:3424
#031340:14
#031320:0034
#032320:3424
#0363a0:1424
#040320:1424
#0413a0:14
#041380:00000024
#042320:0014
#043340:00240000
#0593a0:0014
#060380:54
#0603a0:0024
#059321:0014
#060341:54
#060321:0024
#0753a1:0014
#076381:54
#0763a1:0024
#075320:0014
#076340:54
#076320:0024
#079340:0014
#080320:54
#080340:0024
#083320:0014
#084340:54
#084320:0024
#087340:0014
#087330:00000034
#088320:3400003400003400
#089330:34
#089340:0000342400000000
