This file was generated by Ched 2.7.0.0.
#TITLE ""
#ARTIST ""
#DESIGNER ""
#DIFFICULTY 0
#PLAYLEVEL
#SONGID ""
#WAVE ""
#WAVEOFFSET 0
#JACKET ""
#REQUEST "ticks_per_beat 480"
#00002: 4
#BPM01: 190
#00008: 01
#TIL00: ""
#HISPEED 00
#MEASUREHS 00
#0111a:14
#01212:14
#01318:14
#01414:14
#0151a:14
#01510:41
#0161a:14
#00918:14
#01014:14
#01712:14
#01812:14
#0231a:14
#02310:41
#02414:14
#0251a:14
#02614:14
#02718:14
#02812:14
#02918:14
#03012:14
#0311a:14
#03214:14
#04212:14
#04218:0014
#04312:14
#0441a:14
#04414:0014
#0451a:14
#04612:14
#04712:0016
#04718:26
#0471f:21
#04818:1616
#04810:41
#04912:16
#04918:0016
#05012:16
#05018:0016
#05312:16
#05318:0016
#05412:16
#05418:0016
#05518:0016
#05512:26
#05612:1616
#05718:16
#05712:0016
#05818:16
#05812:0016
#05810:41
#06118:16
#06112:0016
#06218:16
#06212:0016
#06318:1616
#06412:16
#06418:0016
#0371f:11
#0331a:24
#03310:41
#00410:0041
#0013a0:14
#0023a0:24
#003340:14
#004340:24
#005380:14
#006380:24
#007320:14
#008320:24
#0193a0:14
#0203a0:24
#021320:14
#022320:24
#034320:1434
#035320:24
#036380:1434
#037380:24
#038340:1434
#039340:24
#0403a0:1434
#0413a0:24
#051320:1626
#052380:1626
#059380:1626
#060320:1626
#065320:14
#066340:24
#0673a0:14
#068380:24
#069320:14
#070340:24
#070380:0000000000000016
#071380:0036
#072380:3600000036260000
