This file was generated by Ched 2.7.0.0.
#TITLE ""
#ARTIST ""
#DESIGNER ""
#DIFFICULTY 0
#PLAYLEVEL
#SONGID ""
#WAVE ""
#WAVEOFFSET 0
#JACKET ""
#REQUEST "ticks_per_beat 480"
#00002: 4
#BPM01: 190
#00008: 01
#TIL00: ""
#HISPEED 00
#MEASUREHS 00
#0371f:11
#03712:1300000000000013
#03718:13
#0371b:0000000000130000
#03715:0013
#04515:0013
#04512:00230013
#04518:13000023
#05718:00001313
#05712:0013
#05715:0000130000000013
#0571b:0000000000130000
#06612:1300000000000013
#06618:00000013
#06615:0000000000130000
#04812:1300000000130000
#04818:1300000000230000
#04815:0000001300000000
#0481b:0000002300000023
#04810:41
#04612:1300000000000024
#04618:0000001300000000
#04615:00130000
#0461b:13
#0461a:0000000000000024
#01314:00000014
#01312:0014
#0131b:0000001300000000
#01412:00140000
#01413:1414
#01414:00000014
#0141b:0013
#01419:00000013
#0621a:0000130013000014
#06212:0000002300000014
#06219:0013000000130000
#0621b:0000001300000000
#06214:0023000000230000
#06213:00232300
#06712:0000001300130000
#0671b:13130013
#06718:0013
#06715:0013000000000000
#06815:0000001300130000
#0681b:0000000013000013
#0561b:1300000000130000
#05618:0000001300000013
#05615:1300000000230000
#05612:0000002300000023
#04018:00130013
#04015:0013
#0401b:0023
#04012:23230023
#03815:0013000000130000
#03812:0000001300001300
#0381b:00130013
#03818:0013
#0361b:0013000000001300
#03612:0013
#03615:00130013
#03618:0000001300130000
#03518:0000000013000013
#03512:0000000000130000
#0351b:13
#03515:13
#03412:0013000000001300
#0341b:0013
#03418:00130013
#03415:0000001300130000
#03112:0013
#03118:0000230000130013
#0311b:0013
#03115:0013001300002300
#02112:1300000000000023
#0211b:0000001300000023
#02118:0013000000130000
#02115:00131300
#0221b:0013
#02212:0000001300000000
#02218:00130013
#02215:0013000000130013
#01912:0000001300000023
#01915:0013000000130000
#01918:00131300
#0191b:2300000000000023
#0181a:0014
#01812:2314
#01815:0000001300000000
#01818:00130000
#0181b:13
#01816:00000013
#01712:00131313
#0171b:00001313
#01718:0000001300000013
#01715:0000000000130000
#00512:00001323
#00517:00001313
#00816:00130000
#00814:000014
#00818:000000000014
#0081a:0014
#00616:00001313
#0061b:00001323
#00416:00001313
#00417:13
#0041b:00000023
#00410:0041
#0031b:13
#00312:13000013
#00315:0013
#00318:00130000
#00215:00000013
#00218:0013
#00216:13
#0321b:23132300
#03212:13231300
#03218:0000001300000000
#03215:0013000000000000
#03018:00130013
#0301b:2313
#03015:0000000013000013
#03012:00230000
#0161b:13
#01618:00130013
#01612:0000001300000000
#01616:13
#01518:0000000000000013
#01515:00130013
#0151b:0000001300000000
#01517:13
#01510:41
#00717:00001313
#00712:00001323
#0111b:00130013
#01115:00230013
#01118:2313
#01112:0013
#00112:13
#0011b:13000013
#00118:0013
#00115:00130000
#02818:1313
#02815:00000013
#02812:0013
#0281b:00000013
#02712:1300000013000013
#0271b:2313
#02715:0000001300001300
#02718:00130000
#02512:1300000000130000
#02515:0000130000000013
#0251b:1300001300000013
#02518:0000000000130000
#02616:00000013
#02614:0013
#02612:00130000
#02617:00000000001300000000000000000000
#02418:0013
#02415:00000013
#02416:00000013000000000000000000000000
#0241b:00000013
#02318:0000130000000013
#02312:1300001300000013
#02315:0000000000130000
#0231b:2300000000130000
#02310:41
#01218:00130013
#01212:00130013
#01215:0013
#0121b:0013
#01018:1300130000130000
#01012:0000000000000013
#0101b:0000001300000000
#01015:0013000013001300
#00916:0000001400000000
#00912:14
#0721a:2400001400140000
#07216:24242400
#07212:0000002400240000
#07214:0034000000000000
#07012:14140014
#07018:0000000000000026
#06912:14
#0691b:00000013000000000000000000000000
#06418:00130014
#06412:0013000000130000
#06415:1313
#0641b:0000001300000000
#06315:0013000000130000
#06318:0000001300000013
#06312:00232323
#0631b:00232323
#06016:00141414
#0601a:0014000000140000
#06012:0000001400000024
#05915:0000001300001300
#05918:0013
#05812:0000002300000013
#05818:0023002300000013
#0581b:0000230000130000
#05815:2300000000130000
#05810:41
#0441b:0013230000000000
#04412:00000013
#04415:0000130000130000
#04418:00001323
#04315:0000000013130000
#04318:13000023
#04312:13
#0431b:00230000
#04212:0013230000000000
#0421b:00000013
#04218:0000130000130000
#04215:00001323
#04115:13000023
#04118:0000000013130000
#0411b:23
#04112:00230000
#0391b:00000013
#03918:1323
#03915:13
#03912:0023
#03315:0000000013000013
#0331b:0000000000130000
#03318:23
#03312:23
#03310:41
#05518:0013001300130000
#05515:00131300
#05512:00000023
#0551b:00000023
#0501b:0000130000000013
#05012:0000000000130000
#05015:0000001300000013
#05018:1300000000130000
#05118:00160000000016000000160000000000
#0511b:00131300
#05112:00130013
#05115:0013
#0201b:0000001300000000
#02015:00130000
#02018:0013000000000000
#0711a:0000001400000014
#07112:0014000000140000
#07116:00242424
#05414:0013000000130000
#05413:00131300
#05412:0000001300000024
#0541a:0000230023000024
#05419:0023000000230000
#0541b:0000002300000000
#05216:00141414
#05212:0014000000140000
#0521a:0000001400000000
#0491b:00130013
#04918:0013
#04718:00131300
#04715:0013001300000000
#0471f:21
#04712:00000023
#0471b:00000023
#02915:00130013
#02918:1313
#0291b:00130000
#02912:13
#00018:00000013
#00015:0013
#0611b:00000023
#06119:0023
#06117:00230000
#05316:00000023
#05314:0023
#05312:00230000
#0515b:00232313
#05158:00660000000066000000660000000000
#05152:00000013
#0615b:00000013
#06159:0013
#06157:00130000
#05356:00000013
#05354:0013
#05352:00130000
#03358:13
#03352:13
#0195b:13
#0545a:0000000000000014
#05452:0000000000000014
#04652:0000000000000014
#0465a:0000000000000014
#04658:0000005300000000
#04655:00530000
#0415b:13
#07256:24
#07252:0000000000140000
#0725a:0000000000140000
#07058:0000000000000016
#03958:1353
#0395b:00000023
#03955:13
#04852:53
#04858:53
#01354:00000024
#01352:0054
#0135b:0000002300000000
#01452:00240000
#01453:5454
#01454:00000024
#0625a:0000000000000014
#06252:0000000000000014
#0565b:63
#05658:0000000000000063
#05655:63
#03752:13
#03758:13
#02152:13
#00557:00000023
#00457:63
#00456:00000023
#00656:00000023
#02858:53
#02752:5300000000000053
#0275b:0063
#0255b:5300000000000063
#02657:00000000002300000000000000000000
#01652:0000001300000000
#01656:23
#0155b:0000001300000000
#01557:23
#01258:00000053
#01252:00000013
#00956:0000002400000000
#00952:64
#01155:00000013
#0115b:00000013
#00757:00000023
#0695b:00000023000000000000000000000000
#06458:00630064
#06452:0023000000230000
#06455:5353
#0645b:0000002300000000
#05852:0000000000000053
#05858:0000000000000053
#04352:13
#0355b:13
#03555:13
#0505b:0000130000000023
#02352:6300000000000053
#02456:00000023000000000000000000000000
#05955:00000013
#05958:0013
#0495b:00130013
#03055:0000000000000013
#02955:00230023
#02958:0023
#00256:53
#002360:13
#002320:0023
#004370:13
#0043b0:0023
#004360:00000013
#005320:00230000
#005370:00000013
#0063b0:00230000
#006360:00000013
#007320:00230000
#007370:00000013
#0083b0:00230000
#009320:14000024
#009360:0000005400000000
#012380:00000013
#0133b0:0000005300000000
#014380:23
#013321:0014
#013341:00000054
#014331:3434
#014321:00540000
#014341:00000054
#015321:24
#015370:13
#0153b0:00230000
#016360:13
#016320:00230000
#016350:00000013
#017320:23
#017381:13
#0173b1:00230000
#020321:0013
#020351:00000023
#020380:00000013
#0213b0:23
#023320:13
#023350:00230000
#023320:0000000000000013
#024360:00000053000000000000000000000000
#024320:0023
#0253b0:13
#025380:00230000
#0253b0:0000000000000013
#026370:00000000005300000000000000000000
#0263b0:00000023
#027320:13
#027350:00230000
#0273b0:0013
#027380:00000023
#027320:0000000000000013
#028350:00230000
#028381:13
#0283b1:00230000
#029351:00130000
#029321:0023
#029380:0013
#0293b0:00000023
#029351:00000013
#030321:23
#032351:0000000000130000
#032341:00000033
#032331:0000000000000033
#033321:23
#033381:0000000000000013
#0343b1:0023000000000000
#035351:0000000000000013
#036321:0023000000000000
#0373b1:0000000000000013
#038381:0023000000000000
#039381:0013
#0393b1:00000053
#040381:23
#0413b1:0000000000000013
#042381:0023000000000000
#043321:0000000000000013
#044351:0023000000000000
#045381:0013000000000000
#0453b1:0023
#046351:00130000
#046321:0000000000000024
#046380:0000001300000000
#0463a0:0000000000000024
#048320:13
#048350:00230000
#048381:13
#0483b1:00230000
#048351:0000000000000013
#049351:00330033
#049321:0033
#050321:33
#050351:00230000
#0503b1:0000000000000013
#051381:00560000000056000000560000000000
#0513b1:00333323
#0523a1:0000000000000014
#0533a1:00000024
#0563b1:13
#056381:00230000
#056350:13
#056320:00230000
#056380:0000000000000013
#0573b0:00230000
#058380:0000000000000013
#0593b0:00230000
#058321:0000000000000013
#059351:00230000
#060321:0000000000000014
#061321:00000024
#064351:13230000
#064321:0053000000000000
#064380:00132300
#0643b0:0000005300000000
#064351:00001323
#064321:0000000000530000
#064380:00000014
#0663b0:23
#067350:0000000000000013
#068350:0023000000000000
#068381:0013002300000000
#0693b1:13000033000000000000000000000000
#070371:23
#072361:14
#072341:0034000000000000
#072321:00240000
