This file was generated by Ched 2.7.0.0.
#TITLE ""
#ARTIST ""
#DESIGNER ""
#DIFFICULTY 0
#PLAYLEVEL
#SONGID ""
#WAVE ""
#WAVEOFFSET 0
#JACKET ""
#REQUEST "ticks_per_beat 480"
#00002: 4
#BPM01: 190
#00008: 01
#TIL00: ""
#HISPEED 00
#MEASUREHS 00
#00012:0013
#00015:00000013
#00115:00130000
#00118:1313
#0011b:00000013
#00215:13
#00218:00000013
#01115:0013
#01118:00130013
#01212:00130000
#0121b:0013
#01215:00000013
#01415:00000013
#01418:0013
#02215:00000013
#0231b:00130000
#02315:0000001300000000
#02318:2300000000130000
#02312:0000000000000013
#02310:41
#02914:13
#02919:00130000
#02913:0013
#0291a:00000013
#03318:0013
#03312:2300000000130000
#03310:41
#03415:00131300
#03412:00000013
#0341b:0000000000130000
#03418:0000001300000000
#04115:0013
#04118:0000000000130000
#0411a:24
#0411b:0000000000000023
#04515:0013000000002300
#0451b:13000013
#04512:0013
#04518:0023
#04618:1300001300000000
#04615:00130000
#04612:13
#0461a:0000000000000024
#05212:0013000000130000
#05218:00130013
#05215:0000001300000013
#0521b:0013
#0571b:0000000000130000
#05715:00000013
#05718:0000000000000013
#05712:0013
#06315:0000001300000013
#06312:0013000000130000
#06318:00230023
#0631b:0023
#06612:0000000000130000
#06618:00000013
#06615:0000000000000013
#07112:0014000000000000
#07113:0000001400000000
#07114:0000000000140000
#07115:0000000000000014
#07117:00240000
#07118:0024
#07119:00000024
#01518:1300000000000013
#01515:00000013
#01510:41
#05515:00131300
#05518:0013001300000000
#0551b:00000023
#01815:00130000
#01818:0000001300000000
#02418:00000013
#0241b:0013
#0351b:1300000000130000
#03515:0013
#04312:14
#04318:0013
#04315:0000000000130000
#04418:0013
#04415:0000130000130000
#04412:00000013
#0641b:00000013
#06412:13
#06415:00130000
#06418:0013
#01312:0000001300000000
#02512:00130000
#02518:0000001300000000
#02515:1300000000130000
#0251b:0000000000000013
#00615:0013
#00718:0013
#00318:00130000
#00315:1313
#00312:00000013
#00418:13
#00410:0041
#0671b:1313
#06712:0013000000130000
#06718:00130013
#06715:0000001300000000
#06812:0013
#06818:0000001300000000
#0681b:0000000000130000
#0621a:0000000000000014
#06214:0024002400240000
#06218:00242400
#00518:0013
#00814:000000140014
#00818:000014
#00918:14
#0091a:0000001400000000
#01615:13
#01618:00000013
#0171b:13000013
#01718:0013
#01712:13000013
#01715:0013
#01719:00330000
#01714:00330000
#02715:0000001300001300
#02718:00130000
#0271b:0013
#02712:23
#02617:00130000
#02619:0033
#02815:0013
#02818:00000013
#03012:2313
#0301a:00000014
#0301b:00230000
#03116:0000000000140000
#03915:0000000000000014
#0391b:13
#03912:0024
#04215:0033000013000000
#04218:0033000000130000
#0421b:00000013
#03618:00131300
#0361b:00000013
#03612:0000000000130000
#03615:0000001300000000
#03712:1300000000130000
#03718:0013
#0371f:11
#03815:00131300
#03812:00000013
#0381b:0000000000130000
#03818:0000001300000000
#05015:00130000
#0501b:0000000000130000
#05018:1300001300000000
#05012:1300000000130000
#04915:00000013
#0491b:00000013
#04918:0013
#04912:0013
#04812:0000000000000013
#04818:1300000000000013
#04815:0000000000130000
#0481b:00330000
#04810:41
#04718:00131300
#04715:0013001300000000
#04712:00000023
#0471f:21
#05812:2300000000130000
#0581b:0023000000130000
#05815:00230000
#05818:0000002300000000
#05810:41
#05312:00130023
#05315:0013
#0601b:0013000000130000
#06015:00130013
#06018:0000001300000023
#06012:0013
#0611b:00130000
#06118:0013
#06516:0000001400000000
#06915:00000013000000000000000000000000
#0211b:0000000000000013
#02112:0000000000000013
#0561b:0000000000000013
#05615:1300000000000013
#05618:0000000000130000
#05612:00330000
#05418:0024002400240000
#05414:00242400
#05412:0000000000000024
#0701a:0000000000000024
#07214:0000002400240000
#07218:0024
#0721a:24
#0401a:0024
#04012:00000024
#04014:34
#01918:23
#05914:0000003300000000
#05452:0000000000000014
#04658:0000005300000000
#0465a:0000000000000014
#0645b:00000063
#0705a:0000000000000014
#07254:0000000000140000
#0725a:24
#01255:00000063
#01352:0000002300000000
#00255:53
#03352:13
#0415a:14
#00458:63
#01158:00000013
#0625a:0000000000000014
#00958:54
#0095a:0000002400000000
#0155b:0000001300000000
#01558:53
#01655:63
#01652:0000001300000000
#0175b:53000023
#01758:0053
#01752:63000023
#01755:0063
#02657:00230000
#0255b:0000000000000063
#03156:0000000000240000
#02352:0000000000000053
#01958:63
#0355b:13
#03955:0000000000000024
#03952:0054
#0395b:13
#03752:13
#04352:14
#04852:0000000000000053
#04858:5300000000000053
#0515b:00000013
#05255:0000000000000053
#05352:00530013
#05355:0053
#05952:00000013
#0615b:00630013
#06158:0063
#06556:0000002400000000
#06955:00000023000000000000000000000000
#0305a:00000054
#06058:0000000000000063
#0565b:0000000000000063
#05655:6300000000000063
#002350:13
#002320:0023
#004380:13
#0043b0:0023
#004350:00000013
#005350:00230000
#005380:00000013
#006380:00230000
#006350:00000013
#007320:00230000
#007380:00000013
#0083b0:00230000
#009380:14000024
#0093a0:0000005400000000
#010320:13
#010330:0033000000000033
#010340:00330033
#010350:0000003300330000
#010360:0033
#011320:23
#012350:00000013
#013320:0000005300000000
#014350:23
#015380:13
#0153b0:0000332300000000
#016350:13
#016320:0000332300000000
#0173b0:13000033
#017390:00330000
#017380:0033
#018380:23
#017321:13000033
#017341:00330000
#017351:0033
#018351:23
#018351:00001323
#019381:13
#0203b1:0023
#021351:13333300
#021341:0033003300230000
#022381:0013003300000000
#022391:00332300
#023321:0000000000000013
#024351:00230000
#0253b1:0000000000000013
#026371:00330000
#026391:0033
#0263b1:00000023
#027381:0000000000000013
#028381:00230000
#0303a1:00000014
#031361:0000000000540000
#0323a1:0024
#032351:0000000000130000
#032341:00000033
#032331:0000000000000033
#033321:23
#0333b1:0000000000000013
#034381:0023000000000000
#035321:0000000000000013
#036351:0023000000000000
#0373b1:0000000000000013
#038381:0023000000000000
#039321:0014
#039351:0000000000000054
#040341:34
#040321:00240000
#0413b1:0000000000000013
#042381:0033230000000000
#041320:0000000000000013
#042350:0033230000000000
#0433b0:0000000000000013
#044380:0023000000000000
#046380:0000001300000000
#0463a0:0000000000000024
#048380:13
#0483b0:0000332300000000
#048320:0000000000000013
#049350:00230000
#048381:0000000000000013
#0493b1:00230000
#050381:0000000000000013
#0513b1:00330023
#051381:0033
#052351:0000000000000013
#053321:00330023
#053351:0033
#056351:13
#056321:0000332300000000
#0563b1:0000000000000013
#057381:00230000
#056350:0000000000000013
#057320:00230000
#058350:0000000000000013
#059320:00330023
#059340:0000003300000000
#059350:0033
#060380:0000000000000013
#0613b0:00330023
#061380:0033
#0643b0:00000013
#065360:0000005400000000
#0663b0:23
#067350:0000000000000013
#068350:0023000000000000
#068350:0000000000000013
#069350:33000033000000000000000000000000
#070320:23
#0723a0:14
#072380:00240000
