This file was generated by Ched 2.7.0.0.
#TITLE ""
#ARTIST ""
#DESIGNER ""
#DIFFICULTY 0
#PLAYLEVEL
#SONGID ""
#WAVE ""
#WAVEOFFSET 0
#JACKET ""
#REQUEST "ticks_per_beat 480"
#00002: 4
#BPM01: 190
#00008: 01
#TIL00: ""
#HISPEED 00
#MEASUREHS 00
#00012:0012
#00016:00000012
#00114:00120000
#00118:0012
#0011c:00000012
#0011a:12
#00217:12
#00218:00000012
#0021c:0012
#00814:000000000012
#0081c:1222
#00812:00120000
#00816:000012
#00818:000000120022
#0081a:000022
#0101b:13001313
#01015:0013001300001300
#01018:0000130000130013
#01012:13131300
#0111b:23001313
#01112:00130013
#01116:13
#01117:00230000
#01212:00130013
#0121b:0013
#01217:00131313
#0141c:00000012
#0141a:1212
#01418:00120000
#01414:00130013
#01416:13
#01412:0013
#01715:0000001600160016
#01712:0013
#0171b:00000013
#01716:13
#02212:0000001300130000
#02215:0013000013001300
#02218:0000130000000013
#0221b:0013000013000000
#02318:0000120000120012
#0231c:0000001200000000
#02312:1600120000120012
#02316:0012
#0231b:23
#02310:41
#02417:00000012000000000000000012000000
#02412:00000012
#0241c:0012
#02917:0013
#02916:00130013
#0291b:00130000
#02919:0000001300000000
#02913:0000000000130000
#02918:0000000000000013
#02912:13
#03012:23131300
#03015:0000000000000016
#0301b:13230000
#03118:0000261300000000
#03115:00000000000000000000130000000013
#03112:0000000000002613
#0311b:0013000000000000
#03218:26000013000013000000000000000000
#03215:0013260000130000
#0321b:00000000000000130000000000000000
#03212:0026
#03312:2300000013000013
#0331b:0000130000130013
#03316:00131313
#03317:23
#03310:41
#03412:0013000013000000
#03416:00130000130000000000000000000000
#0341b:0000001300001300
#03417:0013
#03414:0000000000130000
#03419:0000000000130000
#03418:3333000000000000
#04612:16000000160000000016001600002600
#04618:1600160016161626
#05916:00001414
#0591b:00131300
#05912:001400000000130000001c0013000000
#07119:0000001500000015
#07113:0013000000130000
#07117:0015000000150000
#07115:0000001300000013
#07114:00230023
#07112:0023
#07118:00250025
#07116:0025
#0151b:13000013
#01516:0000001300000000
#01512:00131713
#01519:0000000000000013
#01510:41
#02018:0013001300000000
#02015:00130000
#0201b:0013
#02012:0013000000000000
#01818:1613
#01815:0000161613000000
#01812:2600000000130000
#0181b:0000000000130000
#01912:1300000000130025
#0191b:00130000
#01916:0013
#01919:0000000000000025
#01918:26
#0351b:1300000013000013
#03512:0000130000130013
#03517:00131313
#0391a:00000014
#03912:00132300
#0391b:00130000
#03915:0024
#06312:0000000023160000
#06318:0000001623000000
#06315:0016230000002316
#0631b:00230023
#07019:15150015
#07012:000000000000002c
#07212:2300260016260000
#07218:0000160026160000
#07215:2500002600000000
#00916:22120000
#00912:1212
#0091c:00120000
#00914:0000001200000000
#0091a:0000001200000000
#00918:0012
#0131b:13
#01314:00120013
#01318:00000012
#01316:0012
#01312:0013
#0161b:00130013
#01612:13
#01617:1300001317001300
#02517:1200001200000000
#0251c:1200001200000012
#02512:0000000000120000
#02616:00000000001200000000000000000000
#02612:00120000
#02615:0012
#02618:00000012
#00512:0012000000002200
#0051c:00001212
#00517:00120000
#00615:0012
#00612:00120012
#00619:0012
#00617:12
#0061c:00000022
#02112:1600130000000025
#0211b:0000000000130000
#02117:0013
#02119:0000000000000025
#0471b:00131323
#04717:0013001300000000
#04712:0013001300002600
#04716:0000130013130000
#0471f:21
#0481b:13001313
#04812:0000001300130013
#04816:13
#04817:0000002300230023
#04810:41
#05012:1300001300130013
#0501b:0000131300130013
#05016:0013000000001400
#05416:0018240024180000
#0541a:0000142414000000
#05412:0024001400240026
#05418:0000000000000026
#05718:0000000016161616
#05716:00130000000000000000000000000000
#05712:00130000
#05812:2626262600160000
#05816:0000000000000014
#0581b:0000000000000013
#05818:0000002600000000
#05810:41
#0491b:0013130000131300
#04912:0013
#04916:0000000000130000
#04917:00130000000000000000000000000000
#06516:12000012
#06512:00120000
#06514:0012
#0651c:0012
#06518:12
#06618:00120000
#0661a:0000000012000012
#0661c:00000012
#06612:0012
#06616:12
#06712:00120000
#06714:0012
#06716:00000012
#0671c:0012
#06718:12
#0531a:00142414
#05316:00140000000014000000140000001400
#05312:00241424
#06212:0018142414180016
#0621a:0024001400240000
#06218:0000000000000016
#06216:00242400
#0521b:1300000000130000
#05216:0013001300130000
#05212:0000130013000013
#05214:00000013
#05219:00000013
#05217:0000000000000013
#0031a:00120000
#00316:0012
#00312:00000012
#00314:12
#00417:12000012
#00412:0012
#0041c:00000022
#00410:0041
#00717:0012000012001200
#0071c:00120000
#00712:00000022
#02716:00130013
#02714:0000003300000013
#02717:0013
#0271b:23130013
#02712:13
#02719:0000001300000033
#02817:0013
#0281b:00130013
#02812:13
#02816:00130013
#03712:13001313
#0371b:0000130000130013
#03717:0013
#03716:0000130000000013
#0371f:11
#03812:0013000013001300
#03815:0000130000130000
#03818:0000001300000000
#0381b:00131313
#03816:0000000000000013
#03817:000000000000000000000000000000000000000000000000000000000000000000000000000000000000000000000000000000000000000000000000000000000000000000000000000000000000000000000000000000000000000000000000000000000000000000000000000000000000000000000000000000000000000000000000000000000000000000000000000000000000000000000000000000000000000000000000000000000000000000000000000000000000000000000000000000000000000000000000000000000000000000000000000000000000000000000000000000000000000000000000000000000000000000000000000000000000000000000000000000000000000000000000000000000000000000000000000000000000000000000000000000000000000000000000000000000000000000000000000000000000000000000000000000000000000000000000000000000000000000000000000000000000000000000000000000000000000000000000000000000000000000000000000000000000000000000000000000000000000000000000000000000000000000000000000000000000000000000000000000000000000000000000000000000000000000000000000000000000000000000000000000000000000000000000000000000000000000000000000000000000000000000000000000000000000000000000000000000000000000000000000000000000000000000000000000000000000000000000000000000000000000000000000000000000000000000000000000000000000000000000000000000000000000000000000000000000000000000000000000000000000000000000000000000000000000000000000000000000000000000000000000000000000000000000000000000000000000000000000000000000000000000000000000000000000000000000000000000000000000000000000000000000000000000000000000000000000000000000000000000000000000000000000000000000000000000000000000000000000000000000000000000000000000000000000000000000000000000000000000000000000000000000000000000000000000000000000000000000000000000000000000000000000000000000000000000000000000000000000000000000000000000000000000000000000000000000000000000000000000000000000000000000000000000000000000000000000000000000000000000000000000000000000000000000000000000000000000000000000000000000000000000000000000000000000000000000000000000000000000000000000000000000000000000000000000000000000000000000000000000000000000000000000000000000000000000000000000000000000000000000000000000000000000000000000000000000000000000000000000000000000000000000000000000000000000000000000000000000000000000000000000000000000000000000000000000000000000000000000000000000000000000000000000000000000000000000000000000000000000000000000000000000000000000000000000000000000000000000000000000000000000000000000000000000000000000000000000000000000000000000000000000000000000000000000000000000000000000000000000000000000000000000000000000000000000000000000000000000000000000000000000000000000000000000000000000000000000000000000000000000000000000000000000000000000000000000000000000000000000000000000000000000000000000000000000000000000000000000000000000000000000000000000000000000000000000000000000000000000000000000000000000000000000000000000000000000000000000000000000000000000000000000000000000000000000000000000000000000000000000000000000000000000000000000000000000000000000000000000000000000000000000000000000000000000000000000000000000000000000000000000000000000000000000000000000000000000000000000000000000000000000000000000000000000000000000000000000000000000000000000000000000000000000000000000000000000000000000000000000000000000000000000000000000000000000000000000000000000000000000000000000000000000000000000000000000000000000000000000000000013000000000000000000000000000000000000000000000000000000000000000000000000000000000000000000000000000000000000000000000000000000000000000000000000000000000000000000000000000000000000000000000000000000000000000000000000000000000000000000000000000000000000000000000000000000000000000000000000000000000000000000000000000000000000000000000000000000000000000000000000000000000000000000000000000000000000000000000000000000000000000000000000000000000000000000000000000000000000000000000000
#04015:0000230000130013
#0401b:0013000000000000
#04018:00130013
#04012:23001324
#0401a:0024
#04112:13240024
#04119:0000001400140000
#04118:0000000012000014
#0411c:0012
#0411a:24
#04517:00000000001300130000000000000000
#04512:1500231300000000
#04514:0000000023130000
#04519:15000000000000000013001300000000
#0451b:00000000000000000000000000130013
#04516:0014000000002313
#0681a:00120000
#06818:0012
#06812:12
#0361b:0013000013000000
#03617:00130000130000000000000000000000
#03612:0000001300001300
#03616:0013
#03619:0000000000130000
#03614:0000000000130000
#03615:3333000000000000
#0421b:13
#04218:0014000000000000
#04216:1300000000000014
#04214:0014
#04217:0000001400140000
#0421a:0014
#04212:00240024
#04316:0014000012000000
#04319:15
#04312:1512
#04313:0000001400140000
#04314:0000000000000014
#0431a:00240024
#05512:00131323
#05516:0013001300000000
#0551b:0013001300000000
#05517:0000130013130000
#05518:00000026
#06116:00140000000014000000140000001400
#06112:00240024
#0611a:0024
#06017:0013001300130000
#0601b:0000130013000023
#06012:1300000000130000
#06019:00000013
#06014:00000013
#06016:0000000000000013
#05118:00131300
#0511b:0000001300130000
#05115:00131300
#05112:0000001300130000
#04412:1314
#04414:0014000000000000
#04416:0000000000000014
#04417:13
#04418:0014
#04415:0000001400140000
#0441a:00240024
#05612:13001313
#0561b:0000001300130013
#05617:13
#05616:0000002300230023
#06418:2424
#0641a:0024000000240000
#06414:2424
#06412:0024000000240000
#02457:00000022000000000000000000000000
#02352:0000000000000052
#0235b:13
#02956:00230023
#02957:0023
#02952:33
#0355b:13
#03552:0000000000000063
#03556:13
#0395a:00000024
#03955:0054
#03952:33
#0395b:43
#07052:000000000000001c
#07252:0000000000160000
#07258:0000000000160000
#07255:25
#00956:52220000
#00952:6222
#0095c:00220000
#00954:0000006200000000
#0095a:0000006200000000
#00958:0022
#01257:00000053
#01252:00000013
#0135b:23
#01354:00000053
#01352:0023
#0155b:23
#01556:0000004300000000
#01652:23
#01657:0000003300002300
#02557:5200005200000000
#0255c:5200005200000062
#02552:0000000000620000
#02656:00000000002200000000000000000000
#00257:52
#00552:0022000000000000
#0055c:00000052
#02152:16
#03055:0000000000000016
#03052:33330000
#0305b:43430000
#01958:16
#04652:3600360000000036
#04658:4600460000000046
#05852:0000000000160000
#05858:0000001600000000
#05856:0000000000000064
#0475b:00005343
#04756:0000000000230000
#04856:53
#0485b:53
#04852:0000000000000063
#05458:0000000000000046
#05452:0000000000000036
#0495b:00630063
#04952:00336333
#04956:0000000000230000
#04957:00230000000000000000000000000000
#05052:6300330000000053
#05056:0023000000000000
#0505b:0000000000000063
#05756:00230000000000000000000000000000
#0575b:00430000
#05752:00330000
#0535a:00544454
#05356:00240000000024000000240000002400
#05352:00346434
#06458:4444
#0645a:0044000000440000
#06454:3434
#06452:0034000000340000
#00457:62000052
#0085c:22
#00757:0022000000006200
#00652:00000062
#00657:22
#01454:00530053
#01456:23
#01452:0023
#01852:0000000000230000
#0185b:0000000000230000
#01855:0053
#01858:0053
#02757:0053
#0275b:43000023
#02752:53
#02756:00230000
#02857:3353
#0285b:00000053
#02852:53
#02856:00530000
#03357:13
#0335b:0000000000000053
#03352:13
#01152:00630033
#0115b:00000043
#01156:53
#03456:00230000000000000000000000000000
#03657:00230000000000000000000000000000
#03752:13
#03757:13
#0375b:0000000000000053
#03852:00000063
#03856:0000000000000023
#03857:000000000000000000000000000000000000000000000000000000000000000000000000000000000000000000000000000000000000000000000000000000000000000000000000000000000000000000000000000000000000000000000000000000000000000000000000000000000000000000000000000000000000000000000000000000000000000000000000000000000000000000000000000000000000000000000000000000000000000000000000000000000000000000000000000000000000000000000000000000000000000000000000000000000000000000000000000000000000000000000000000000000000000000000000000000000000000000000000000000000000000000000000000000000000000000000000000000000000000000000000000000000000000000000000000000000000000000000000000000000000000000000000000000000000000000000000000000000000000000000000000000000000000000000000000000000000000000000000000000000000000000000000000000000000000000000000000000000000000000000000000000000000000000000000000000000000000000000000000000000000000000000000000000000000000000000000000000000000000000000000000000000000000000000000000000000000000000000000000000000000000000000000000000000000000000000000000000000000000000000000000000000000000000000000000000000000000000000000000000000000000000000000000000000000000000000000000000000000000000000000000000000000000000000000000000000000000000000000000000000000000000000000000000000000000000000000000000000000000000000000000000000000000000000000000000000000000000000000000000000000000000000000000000000000000000000000000000000000000000000000000000000000000000000000000000000000000000000000000000000000000000000000000000000000000000000000000000000000000000000000000000000000000000000000000000000000000000000000000000000000000000000000000000000000000000000000000000000000000000000000000000000000000000000000000000000000000000000000000000000000000000000000000000000000000000000000000000000000000000000000000000000000000000000000000000000000000000000000000000000000000000000000000000000000000000000000000000000000000000000000000000000000000000000000000000000000000000000000000000000000000000000000000000000000000000000000000000000000000000000000000000000000000000000000000000000000000000000000000000000000000000000000000000000000000000000000000000000000000000000000000000000000000000000000000000000000000000000000000000000000000000000000000000000000000000000000000000000000000000000000000000000000000000000000000000000000000000000000000000000000000000000000000000000000000000000000000000000000000000000000000000000000000000000000000000000000000000000000000000000000000000000000000000000000000000000000000000000000000000000000000000000000000000000000000000000000000000000000000000000000000000000000000000000000000000000000000000000000000000000000000000000000000000000000000000000000000000000000000000000000000000000000000000000000000000000000000000000000000000000000000000000000000000000000000000000000000000000000000000000000000000000000000000000000000000000000000000000000000000000000000000000000000000000000000000000000000000000000000000000000000000000000000000000000000000000000000000000000000000000000000000000000000000000000000000000000000000000000000000000000000000000000000000000000000000000000000000000000000000000000000000000000000000000000000000000000000000000000000000000000000000000000000000000000000000000000000000000000000000000000000000000000000000000000000000000000000000000000000000000000000000000000000000000000000000000000000000000000000000000023000000000000000000000000000000000000000000000000000000000000000000000000000000000000000000000000000000000000000000000000000000000000000000000000000000000000000000000000000000000000000000000000000000000000000000000000000000000000000000000000000000000000000000000000000000000000000000000000000000000000000000000000000000000000000000000000000000000000000000000000000000000000000000000000000000000000000000000000000000000000000000000000000000000000000000000000000000000000000000000000
#0385b:00000053
#04152:00340034
#04252:00340034
#05252:0000000000000063
#05552:00006333
#05557:0000000000230000
#06156:00240000000024000000240000002400
#06152:00643464
#0615a:00445444
#01756:23
#05158:00232343
#0515b:0000006300630000
#05155:00232333
#05152:0000005300530000
#0655c:0022
#06558:52
#06652:0022
#06656:62
#0675c:0022
#06758:52
#06858:0052
#06852:22
#06252:0000000000000036
#06258:0000000000000046
#05952:00240000000000000000000000000000
#05956:00003444
#0435a:00440044
#0445a:00440044
#0605b:0000000000000053
#05657:63
#05652:63
#0565b:0000000000000053
#002370:12
#002320:0022
#004370:12
#0043c0:0022
#004370:00000012
#005320:0052000000000000
#005370:0022
#0053c0:00000012
#006370:52
#0063c0:00220000
#006320:00000012
#007370:0052000000000000
#007320:0022
#007370:00000012
#0083c0:52
#008370:00220000
#009320:1252
#009360:00520000
#009340:0000005200000000
#009380:00000022
#009361:12
#0093c1:00520022
#0093a1:0000005200000000
#009381:0052
#011361:1323
#011321:00330000
#012371:00000013
#0133b1:53
#013371:00230000
#013321:0013
#013341:00000053
#014361:33
#014341:00530053
#014321:0033
#015361:23
#0153b0:13
#015360:00230000
#016320:13
#016370:00230000
#016370:00000013
#017320:23
#017361:13
#0173b1:00230000
#017320:0000132300000000
#0173b0:0000000013230000
#017320:0000000000001323
#018350:00001323
#018320:0000000000530000
#018381:00001323
#0183b1:0000000000530000
#019321:0013002300000000
#019361:00330000
#019370:0000001300230000
#0193b0:0033
#020360:0013
#020320:0000000000532300
#020371:00000013
#0203b1:0000000000000053
#0213b1:23
#0213b1:0013002300000000
#021371:00330000
#021360:0000001300230000
#021320:0033
#023320:0000000000000012
#024370:00000052000000000000000000000000
#024320:0022
#025370:12
#025320:00220000
#0253c1:12
#025371:00220000
#025371:0000001200000022
#025321:0000000000320000
#0253c0:0000001200000000
#025370:0000000000220000
#0253c0:0000000000000012
#026360:00000000005200000000000000000000
#0263c0:00000022
#027320:1323
#027360:00330000
#027340:0000003300000000
#027371:0013
#0273b1:00000033
#027391:0000000000000033
#028371:23
#028320:1323
#028360:00330000
#028371:0013
#0283b1:00000033
#029371:23
#029361:00130000
#029321:0023
#029370:0013
#0293b0:00000023
#029361:00000013
#030321:23
#030371:0013
#0303b1:00000023
#030320:00000013
#031320:0023
#0313b1:0000000013000023
#0323b1:0000000000130033
#032371:00000033
#033371:23
#0333b1:0000000000000013
#034381:3333000000000000
#034361:00530000000000000000000000000000
#0343b1:00230000
#034361:00000013
#035361:23
#035321:0000000000000013
#036351:3333000000000000
#036371:00530000000000000000000000000000
#036321:00230000
#036371:00000013
#037371:23
#0373b1:0000000000000013
#038361:0023000000000000
#038321:00000013
#038361:0000000000000053
#039321:23
#0383b0:00000013
#038370:000000000000000000000000000000000000000000000000000000000000000000000000000000000000000000000000000000000000000000000000000000000000000000000000000000000000000000000000000000000000000000000000000000000000000000000000000000000000000000000000000000000000000000000000000000000000000000000000000000000000000000000000000000000000000000000000000000000000000000000000000000000000000000000000000000000000000000000000000000000000000000000000000000000000000000000000000000000000000000000000000000000000000000000000000000000000000000000000000000000000000000000000000000000000000000000000000000000000000000000000000000000000000000000000000000000000000000000000000000000000000000000000000000000000000000000000000000000000000000000000000000000000000000000000000000000000000000000000000000000000000000000000000000000000000000000000000000000000000000000000000000000000000000000000000000000000000000000000000000000000000000000000000000000000000000000000000000000000000000000000000000000000000000000000000000000000000000000000000000000000000000000000000000000000000000000000000000000000000000000000000000000000000000000000000000000000000000000000000000000000000000000000000000000000000000000000000000000000000000000000000000000000000000000000000000000000000000000000000000000000000000000000000000000000000000000000000000000000000000000000000000000000000000000000000000000000000000000000000000000000000000000000000000000000000000000000000000000000000000000000000000000000000000000000000000000000000000000000000000000000000000000000000000000000000000000000000000000000000000000000000000000000000000000000000000000000000000000000000000000000000000000000000000000000000000000000000000000000000000000000000000000000000000000000000000000000000000000000000000000000000000000000000000000000000000000000000000000000000000000000000000000000000000000000000000000000000000000000000000000000000000000000000000000000000000000000000000000000000000000000000000000000000000000000000000000000000000000000000000000000000000000000000000000000000000000000000000000000000000000000000000000000000000000000000000000000000000000000000000000000000000000000000000000000000000000000000000000000000000000000000000000000000000000000000000000000000000000000000000000000000000000000000000000000000000000000000000000000000000000000000000000000000000000000000000000000000000000000000000000000000000000000000000000000000000000000000000000000000000000000000000000000000000000000000000000000000000000000000000000000000000000000000000000000000000000000000000000000000000000000000000000000000000000000000000000000000000000000000000000000000000000000000000000000000000000000000000000000000000000000000000000000000000000000000000000000000000000000000000000000000000000000000000000000000000000000000000000000000000000000000000000000000000000000000000000000000000000000000000000000000000000000000000000000000000000000000000000000000000000000000000000000000000000000000000000000000000000000000000000000000000000000000000000000000000000000000000000000000000000000000000000000000000000000000000000000000000000000000000000000000000000000000000000000000000000000000000000000000000000000000000000000000000000000000000000000000000000000000000000000000000000000000000000000000000000000000000000000000000000000000000000000000000000000000000000000000000000000000000000000000000000000000000000000000000000000000000000000000000000053000000000000000000000000000000000000000000000000000000000000000000000000000000000000000000000000000000000000000000000000000000000000000000000000000000000000000000000000000000000000000000000000000000000000000000000000000000000000000000000000000000000000000000000000000000000000000000000000000000000000000000000000000000000000000000000000000000000000000000000000000000000000000000000000000000000000000000000000000000000000000000000000000000000000000000000000000000000000000000000000
#0393b0:23
#039350:0014
#0393a0:00000054
#040350:24
#0473b0:00001323
#047360:0000000000530000
#0483b0:13
#048370:00230000
#048361:13
#048321:00230000
#048321:0000000000000013
#049371:00530000000000000000000000000000
#049321:00230000
#0493b0:00130000
#049360:0023
#049321:00001323
#049361:0000000000530000
#0493b0:00000013
#050360:23
#050321:13230000
#050361:0053000000000000
#0503b1:0000000000000013
#051381:00530000330000003300000023000000
#0513b1:0000005300530000
#050320:0000000000000013
#051350:00530000330000003300000023000000
#051320:0000005300530000
#0523b0:0013003300000000
#052370:00332300
#052320:0000000000000013
#053360:00540000000000000000000000000000
#053320:00240000
#0533a1:00142400
#053361:0000005400000000
#053320:00001424
#053360:0000000000540000
#0533a1:00000014
#053361:0000000000000054
#0543a1:24
#055321:00001323
#055371:0000000000530000
#056321:13
#056361:00230000
#056370:13
#0563b0:00230000
#0563b0:0000000000000013
#057360:00530000000000000000000000000000
#0573b0:00230000
#057320:000000000000000000000000000000000000000000000000000000000000000000000000000000000000000000000000000000000000000000000000000000000000000000000000000000000000000000000000000000000000000000000000160000000000000000000000000000000000000000000000000000000000000000000000000000000000000000000000000000000000000000000000000000000000000000000000565c0000000000000000005c000000000000000000000000
#057380:00000000000000000000000000000056
#058380:0000002600000000
#058360:0000000000000014
#059320:00540000000000000000000000000000
#059360:00240000
#060320:0013003300000000
#060360:00332300
#0603b0:0000000000000013
#061360:00540000000000000000000000000000
#0613a0:00240000
#061321:00142400
#061361:0000005400000000
#0613a0:00001424
#061360:0000000000540000
#061321:00000014
#061361:0000000000000054
#062321:24
#065381:12
#0653c1:0052
#066381:22
#066360:12
#066320:0052
#067360:22
#067381:12
#0673c1:0052
#068381:22
#068320:12
#068360:0022
#068381:0012
#0693c1:22
#069340:12005200000000000000000000000000000000000000000000000000000000000000000000000000000000000000000000000000000000000000000000000052
#069320:00560000000000000000000000000000000000000000000000000000000000000000000000000000000000000000000000000000000000000000000000000000
#070320:36360000
#070340:00520000000000000000000000000052005200000000000000000000000000000000000000000000000000000000000022000000000000000000000000000000
#072350:15
#072390:0025000000000000
