This file was generated by Ched 2.7.0.0.
#TITLE ""
#ARTIST ""
#DESIGNER ""
#DIFFICULTY 0
#PLAYLEVEL
#SONGID ""
#WAVE ""
#WAVEOFFSET 0
#JACKET ""
#REQUEST "ticks_per_beat 480"
#00002: 4
#BPM01: 190
#00008: 01
#TIL00: ""
#HISPEED 00
#MEASUREHS 00
#00018:0014
#00214:0014
#0041a:0014
#00410:0041
#00612:0014
#00818:0014
#01014:0014
#01218:00140014
#01214:0014
#01512:14
#0151a:0014
#01510:41
#01612:14
#0161a:0014
#01714:1414
#01718:00140014
#0181a:0014
#01812:0014
#01814:24
#01912:14
#01914:00000014
#0211a:14
#02118:00000014
#02712:14
#02718:0014
#02814:14
#0281a:0014
#02912:14
#02918:0014
#03014:14
#0301a:00000014
#03118:0000000000140000
#0331a:0014
#03312:24
#03310:41
#03412:14
#03418:0014
#03414:00000014
#0351a:14
#03512:0014
#0361a:14
#03614:0014
#03618:00000014
#03712:14
#0371a:0014
#0371f:11
#03812:14000014
#0381a:0014
#03918:14
#03912:0024
#0411a:0014
#04114:24000014
#04218:1414
#04212:00140000
#04214:00000014
#0431a:14
#04312:0014
#04318:00000014
#04414:1414
#0441a:00140000
#04418:00000014
#04512:14
#04518:0014
#04514:00000014
#04618:14
#04614:0000000000000024
#0471a:00140000
#04712:0014
#04718:00000024
#0471f:21
#04814:14
#0481a:00140000
#04812:0014
#04818:00000014
#04810:41
#04914:14140000
#04918:00001414
#05012:1414
#0501a:00140000
#0531a:14
#05314:00140000
#05318:0014
#05312:00000014
#0541a:14
#05414:00140000
#05418:0000000000000024
#05512:00140000
#0551a:0014
#05514:00000024
#05618:14
#05612:00140000
#0561a:0014
#05614:00000014
#05718:14140000
#05714:00001414
#0581a:1414
#05812:00140000
#05810:41
#06112:14
#06118:00140000
#06114:0014
#0611a:00000014
#06212:14
#06218:00140000
#0631a:00140000
#06314:0014
#06318:00000014
#06412:14
#06418:00140000
#06414:0014
#0641a:00000014
#06518:0000001400000000
#06712:14
#06714:0014
#0691a:14
#06914:14
#07012:14
#07018:14
#07114:0014
#07118:00000014
#07213:15
#07218:0000150000260000
#07212:0026
#0401a:24000024
#04012:0024
#01114:00343400
#02310:41
#01258:00000054
#01952:54
#01954:00000024
#0215a:64
#02158:00000024
#03158:0000000000240000
#0305a:00000054
#03352:14
#04654:0000000000000014
#05458:0000000000000014
#06254:0000000000000014
#06558:0000002400000000
#0645a:00000054
#06752:64
#06754:0024
#0435a:14
#04552:14
#001380:14
#002380:24
#003340:14
#004340:24
#0053a0:14
#006380:24
#007320:14
#008340:24
#009380:14
#0103a0:24
#011340:14343400
#011320:00000024
#012380:00000014
#0143a0:24
#019320:14
#019340:00000054
#020320:0024
#0213a0:14
#021380:00000054
#0223a0:0024
#023320:1424
#024380:1424
#025340:1424
#0263a0:1424
#0303a0:00001434
#031380:0000000000540000
#0323a0:0024
#046340:0000143400000024
#0513a0:1434
#051390:00340024
#052320:1434
#052330:00340024
#054380:0000000014000024
#059320:14000024
#059340:00343400
#0603a0:14000024
#060380:00343400
#062340:0000000014000024
#0643a0:00000014
#065380:0000005400000000
#0663a0:24
#067320:14
#067340:0054
#068320:24
#070380:0000000000000014
#071380:0034240000000000
