This file was generated by Ched 2.7.0.0.
#TITLE ""
#ARTIST ""
#DESIGNER ""
#DIFFICULTY 0
#PLAYLEVEL
#SONGID ""
#WAVE ""
#WAVEOFFSET 0
#JACKET ""
#REQUEST "ticks_per_beat 480"
#00002: 4
#BPM01: 220
#00008: 01
#TIL00: ""
#VOLUME: ""
#HISPEED 00
#MEASUREHS 00
#00212:12
#00214:000012000000000000120000
#00216:000000120000000012000000
#00218:000052
#00314:000012000000000000120000
#00316:000000120000000012000000
#00312:000052000000000000000012
#00318:000052
#01115:001300000013001300000000
#01112:001300001300
#0111b:00130013
#01118:230013130000
#01018:001300131300
#0101b:23130013
#01015:000000130013000000130013
#01012:2313
#0181b:00131300
#01818:000000000013000013000000
#01812:000000000053000000130000
#01819:000000000000000000000013
#01815:000000000053000000130000
#01810:41
#01913:13
#0191a:001300000000
#01917:00130000
#01918:000000000013000000000000
#0191b:000000000013000000000000
#01912:00000013
#01915:000000000000000000000013
#01916:13
#01914:00130000
#02115:000000000000000000000013
#02118:000016
#0211a:13
#02113:001300000000
#02116:00130000
#02117:13
#02119:00130000
#02212:00130000
#02215:000000000000130000000013
#0221b:000000131300
#02218:13130013
#0231b:00130000
#02312:130000000013000000000000
#02315:0013
#02318:001300001300
#02418:130000130013000000000000
#02415:001300130000
#0241b:0013
#02412:1313
#02514:00121200
#02516:000000000012000000000000
#02518:000012
#0251a:00121212
#02619:12
#02618:000012000012000000120000
#02616:000000120000000012000012
#0261c:12
#02612:0012
#02615:0012
#02716:001200000000
#02718:00120000
#02719:12
#0271c:12
#02712:000000000014000013000000
#0271a:000000000014000000000000
#0271b:000013
#0281b:00131300
#02818:000000131300
#02812:00130013
#02815:000000000013000000130013
#0301b:000000130013000000000013
#03015:000000131300
#03012:00130013
#03018:000000000013000013000013
#03218:000013000000000000130013
#0321b:001300000000
#03212:00001353
#03216:0014
#03215:00000013
#03318:00131313
#03315:130000130013000000130000
#0331b:00530000
#03712:5313
#03715:000000130000130013000000
#03718:001300001313
#0371b:130000130000000000001300
#04115:531300130000
#04112:53130000
#04118:000000000013000000130000
#0411b:130013
#05015:000000000013000000130000
#0501b:2313
#05018:000000131300
#05012:230000000000000000130013
#05016:24640000
#0501f:21
#05118:130000130000000013000000
#05112:00000013
#05115:13131313
#0511b:001300131300
#05110:41
#0521b:00000013
#05215:000000000013000000000000
#05218:00131600
#05212:00131313
#05216:00000014
#0531b:130000131300
#05312:130000000000130000000013
#05318:000000000000000013130000
#05315:000000000000000000130013
#05415:130000000013130000130013
#05412:000000130013000000000013
#05418:130000000000130013130000
#0541b:000000130000000013000000
#05515:130000000000130013130000
#0551b:000000130013000000000013
#05518:130000000013130000130013
#05512:000000130000000013000000
#06115:130000130013000023000000
#0611b:001300230023
#06118:130013130000230000002300
#06112:000000000013000023000000
#0641b:000000000013130000000000
#06418:00000013
#06415:00000013
#06412:000000000013130000000000
#06518:000000000013000000130000
#06515:000013000013000000130000
#0651b:00130000
#06512:00130000
#06715:000000000013000000000000
#06718:000000000000130000000014
#06712:000014
#06714:00000014
#06716:530000000014
#0681a:14
#06812:000000130013000000130000
#0681b:00000013
#06817:000000000000000000000013
#06917:001300131300
#0691b:000000130013000000130013
#07218:000000130000130013130000
#07215:000000000013130013000000
#07212:140000000013000000000013
#0721b:00130013
#07315:130000130013000000000000
#07318:130000130013000000000000
#0731b:001300000000
#0801a:24145400
#08016:00001458
#08012:00580014
#0831b:23131313
#08315:00130013
#08312:00131313
#08318:0013
#08316:24
#1161a:001400140000
#11612:240014
#11616:58
#11718:001400000000
#11714:00140000
#11712:14
#1171a:000000000014000000140000
#11716:00000014
#11812:131300130000
#1181b:000013
#11818:13
#0041c:120000000000000000000012
#0041a:000012000000000000120000
#00418:000000120000000012000000
#00416:000052
#00518:001200001200
#0051a:12000012
#0051c:000000000012000000000012
#00516:000000000052000000000000
#00612:12
#00614:000012000000000000120000
#00616:000000120000000012000000
#00618:000052
#00714:000012000000000000120000
#00716:000000120000000012000000
#00712:000052000000000000000012
#00718:000052
#0081c:120000000000000000000012
#0081a:000012000000000000120000
#00818:000000120000000012000000
#00816:000052
#00918:001200001200
#0091a:12
#0091c:000000000012000000000000
#00912:000012
#00916:000000000052000000000000
#01315:230013130013
#01318:001300000013001300000000
#0131b:001300001300
#01312:00000013000000000013002c
#01715:230000001300000000130000
#01718:001300000013000000000013
#0171b:001300001300
#01712:00131313
#03112:000000130013000000000000
#03118:000000131300
#0311b:00130013
#03115:000000000013000013000000
#03415:13000053
#0341b:13
#03412:130000000053000000000000
#03416:000000000013000000000000000000000000000000000000
#03410:41
#03418:00000053
#03518:13000053
#0351b:130000000053000000000000
#03517:000000000013000000000000000000000000000000000000
#03512:53
#03515:00000053
#03615:13000053
#03612:130000000053000000000000
#03616:000000000013000000000000000000000000000000000000
#0361b:53
#03618:00000053
#0421b:130000000013000000000000
#04218:000000000013000000000000
#04212:130000000053000000000000
#04216:000000000013000000000000000000000000000000000000
#04215:00000053
#04312:130000000013000000000000
#04315:000000000013000000000000
#0431b:130000000053000000000000
#04317:000000000013000000000000000000000000000000000000
#04318:53000053
#0441b:130000000013000000000000
#04412:130000000053000000000000
#04416:000000000013000000000000000000000000000000000000
#04415:53
#04418:00000053
#04512:130000000013000000000000
#0451b:130000000053000000000000
#04517:000000000013000000000000000000000000000000000000
#04515:53000053
#0461b:1313
#04612:13000013
#04618:53001353
#04615:00005313
#04815:000000000016000000000000
#04816:14
#0481b:00000053
#04812:53000053
#06612:130013000000000000130013
#0661b:13000013
#06610:41
#06613:00000053000000000000000000000053
#06614:000000000053000000000000000000000000000000000053
#06615:000000000000000000000053000000000000000000000000000000000000000000000000000000000000000000000053
#06616:00530000
#05818:000000130013000000130000
#05812:0013
#05815:000000230000130013000000
#0581b:000000000000000000130013
#0581a:24
#05816:23
#05915:130000130000000013000000
#0591b:00000013
#05918:13131313
#05912:001300131300
#06018:000000000013000000160000
#06012:000000000000160000130013
#0601b:00131300
#06015:000000130000000013000013
#0621b:000000130013000000000013
#06212:260000130000000013000000
#06218:000000000013130000130013
#06215:000000000000130013130000
#06318:130000000000130013130000
#06312:000000130013000000000013
#06315:130000000013130000130013
#0631b:000000130000000013000000
#07118:000000000013000000140000
#07115:0013
#0711a:000014
#07116:000000000014
#07114:000000000000000000000014
#0711b:53
#07017:130013000000000000130013
#07012:00000013
#07018:00000053000000000000000000000053
#07019:000000000053000000000000000000000000000000000053
#0701a:000000000000000000000053000000000000000000000000000000000000000000000000000000000000000000000053
#0701b:00530000
#07518:000000000013000000140000
#07515:0013
#0751a:000014
#07516:000000000014
#07514:000000000000000000000014
#07517:53
#07612:14000013
#0761b:000000130013000000130000
#07616:000000000000000000000013
#07716:001300131300
#07712:000000130013000000130013
#0741b:130013000000000000130013
#07412:13000013
#0741a:00000053000000000000000000000053
#07419:000000000053000000000000000000000000000000000053
#07418:000000000000000000000053000000000000000000000000000000000000000000000000000000000000000000000053
#07417:00530000
#07915:000000000013000000000000
#07918:000000000000130000000014
#07912:530014
#07914:00000014
#07916:000000000014
#07816:130013000000000000130013
#0781b:00000013
#07815:00000053000000000000000000000053
#07814:000000000053000000000000000000000000000000000053
#07813:000000000000000000000053000000000000000000000000000000000000000000000000000000000000000000000053
#07812:00530000
#0811a:1414
#08112:58140014
#08116:00585454
#08412:2313
#08415:0013
#0841b:23000013
#08418:00000013
#08416:24640000
#08410:41
#08515:130000130000000013000000
#0851b:00000013
#08518:13131313
#08512:000000131300
#08612:00001613
#08618:000000000013000000000000
#0861b:00131313
#08615:00130000
#08616:00000014
#08712:130000131300
#0871b:130000130013
#08715:000000000000000013130013
#08718:000000000000000000131313
#08815:130000000000130013131300
#0881b:000000130013001300000013
#08812:130000130000000013001300
#08818:000000000013131300130013
#08918:130000000000131313001300
#08912:000000130013000000130013
#08915:130000000013130013131313
#0891b:000000130000001300000000
#09812:000000000013130000000000
#09815:00000013
#09818:00000013
#0981b:000000000013130000000000
#09912:00130000
#09915:000000000013000000130000
#0991b:00130000
#09918:000013000013000000130000
#09318:130000130000000013000000
#09312:00000013
#0931b:000000131300
#09315:13131313
#09415:000000000013000000000000
#09418:000000130000160013000013
#09412:00131316
#0941b:000000000000000000130013
#09612:000000130013001300000013
#0961b:000000130000000013001300
#09615:000000000013131300130013
#09618:260000000000130013131300
#09715:130000000000130013131300
#0971b:000000130013001300000013
#09718:130000000013131300130013
#09712:000000130000000013001300
#09215:00130013
#0921b:0013
#09218:00231300
#09212:24000013
#09217:23
#10016:140000000064000000000000000000000000140000000064
#10012:240024000000000000240024
#1001a:240064640000000000240064
#10010:41
#10014:00000064000000000000000000000064
#10018:000000000000000000000064000000000000000000000000000000000000000000000000000000000000000000000064
#10618:130000130000130013130000
#10615:000000000013130013000000
#10612:000000000013000000000013
#1061b:13130013
#10715:130000130013000000000000
#10718:130000130013000000000000
#1071b:001300000000
#10518:000000000013000013130013
#10515:000000000000130000131313
#1051b:000013
#10512:000000000013
#1051a:64
#10212:130000130013000000130000
#1021b:00000013
#10216:000000000000000000000014
#10215:13
#10312:141400541400
#1031a:000000540014000000540000
#10314:000000000000000000540000000000000000000000000054000000000000000000540000000000000000000000000000
#10316:000000000054000000000054000000000054540000000000
#10318:000000000000000000000054000000000000000000540000000000000000000000000054000000000000000000000000
#10115:000000000013000013130013
#10118:000000000000130000131313
#10112:000013
#1011b:000000000013
#1011a:64
#11315:000000000013000013130013
#11318:000000000000130000131313
#11312:640013
#1131b:000000000013
#1101b:130000130013000000130000
#11012:00000013
#11016:000000000000000000000014
#11018:13
#1111a:141400541400
#11112:000000540014000000540000
#11118:000000000000000000540000000000000000000000000054000000000000000000540000000000000000000000000000
#11116:000000000054000000000054000000000054540000000000
#11114:000000000000000000000054000000000000000000540000000000000000000000000054000000000000000000000000
#10918:000000000013000013130013
#10915:000000000000130000131313
#1091b:000013
#10912:640000000013
#11915:000013000000000000130000
#11918:00130000
#1191b:13
#11912:000000000013000000130000
#1201c:1212
#1201a:001200000000
#12014:000012
#12016:12
#12118:000012000000000000120000
#12116:00120000
#12112:12
#1211c:000000000012000000120000
#01215:001300131300
#01212:23130013
#01218:000000130013000000130013
#0121b:2313
#01515:001300000013001300000000
#01512:001300001300
#0151b:00130013
#01518:230013130000
#01418:000000131300
#0141b:00000013
#01415:000000000000000000130013
#01412:0013
#01615:001300131300
#01612:23130013
#01618:000000130013000000130013
#0161b:2313
#04715:13135313
#04718:13131353
#0471b:00531300
#04712:53000013
#10416:140000000064000000000000000000000000140000000064
#10412:240024000000000000240024
#1041a:240064640000000000240064
#10414:00000064000000000000000000000064
#10418:000000000000000000000064000000000000000000000000000000000000000000000000000000000000000000000064
#11412:23145458
#11416:00581400
#1141a:00000014
#11415:23
#11512:14581400
#1151a:00140014
#11516:58005454
#09518:130000130013000023000000
#09512:001300230023
#09515:130013130000230000002300
#0951b:000000000013000023000000
#03815:130000000053000000000000
#03812:13
#0381f:11
#03818:000000000053000000000000
#0381b:00000053
#02012:00131300
#02015:000000000013000013000000
#0201b:000000000053000000130000
#02014:000000000000000000000013
#02018:000000000053000000130000
#03918:130000000053000000000000
#0391b:13
#03915:530000000053000000000000
#03912:53000053
#04015:130000000053000000000000
#04012:13
#04018:530000000053000000000000
#0401b:53000053
#08212:5823
#08216:0024
#0821a:24
#12212:23000023
#12218:00232300
#12215:23002323
#1221b:00230000
#0901a:245400002400
#09012:000024540000
#09016:005252
#09018:005252
#1121a:240024000000000000240024
#11216:240000000064000000000000000000000000240000000064
#11218:00000064000000000000000000000064
#11214:000000000000000000000064000000000000000000000000000000000000000000000000000000000000000000000064
#11212:00640000
#1231b:23000023
#12315:00232300
#12318:23002323
#12312:00230000
#12412:23
#12415:23
#02915:000000000023000000000000
#02918:000000000023000000000000
#1081a:240024000000000000240024
#10816:240000000064000000000000000000000000240000000064
#10818:00000064000000000000000000000064
#10814:000000000000000000000064000000000000000000000000000000000000000000000000000000000000000000000064
#10812:00640000
#05612:245400002400
#0561a:000024540000
#05618:005252
#05616:005252
#09112:000000000054000000540000
#0911a:000000545400
#09114:000000000000000000000000000000000000000000540000000000000000000000000054000000000000000000000000
#09116:000000000000000000000054000000000054000000000000
#09118:000000000000000000000000000000000000000000000054000000000000000000540000000000000000000000000000
#0571a:000000000054000000540000
#05712:000000545400
#05718:000000000000000000000000000000000000000000540000000000000000000000000054000000000000000000000000
#05716:000000000000000000000054000000000054000000000000
#05714:000000000000000000000000000000000000000000000054000000000000000000540000000000000000000000000000
#0195b:000000000053000000000000
#01958:000000000053000000000000
#02158:000016
#02455:0053
#02452:0053
#02752:000000000014000053000000
#0275a:000000000014000000000000
#0275b:000053
#02758:000000000000000000000013
#02755:000000000000000000000013
#02952:000000000000000000000013
#02955:000000000000000000000013
#02958:000000000000000000000013
#0295b:000000000000000000000013
#03055:0013
#03052:00000013
#03158:0013
#0315b:00000013
#04452:53
#04456:000000000023000000000000000000000000000000000000
#0455b:53
#04557:000000000023000000000000000000000000000000000000
#04855:000000000000000000000013
#04858:000000000000000000000013
#0505b:1343
#05052:13000033
#06656:000000000033000000000000
#0665b:000000000033000000000000
#05158:43
#05155:00330053
#05152:00000053
#0525b:13
#05258:13
#05355:001300000000
#05358:001300000000
#05852:0033
#0585b:00000043
#0585a:14
#05856:13
#0595b:00000063
#05955:33
#05958:00430063
#06052:13
#06055:13
#06258:13
#06252:16
#0645b:0053
#06458:00000053
#06455:00000053
#06452:0053
#06756:003300000000
#0675b:003300000000
#06852:000000000013000000000000
#06856:000000000014000000000000
#0705b:000000000033000000000000
#07052:000000000033000000000000
#0715b:003300000000
#07152:003300000000
#07352:000013
#0735b:000013
#0765b:000000000013000000000000
#07656:000000000014000000000000
#07457:000000000043000000000000
#07452:000000000043000000000000
#07557:004300000000
#07552:004300000000
#07852:000000000043000000000000
#0785b:000000000043000000000000
#07952:004300000000
#0795b:004300000000
#0815a:1414
#08152:00140014
#08056:0014
#08052:00000014
#0805a:00140000
#08452:1333
#0845b:13000043
#0855b:00000063
#08555:33
#08558:00430063
#08652:13
#08655:13
#08758:001300000000
#08755:001300000000
#09252:14000033
#09257:13
#0925b:0043
#09852:0063
#09855:00000063
#09858:00000063
#0985b:0063
#09352:00000053
#09355:00330053
#09358:43
#09658:16
#09655:13
#0945b:13
#09458:13
#10052:00000000003c000000000000
#10152:003c00000000
#1075b:000013
#10752:000013
#10252:000000000013000000000000
#10256:000000000014000000000000
#1105b:000000000013000000000000
#11056:000000000014000000000000
#11252:000000000044000000000000
#11256:000000000048000000000000
#11352:004400000000
#11356:004800000000
#01452:001c0000
#01752:0013
#0825a:14
#10452:00000000003c000000000000
#10552:003c00000000
#10852:000000000044000000000000
#10856:000000000048000000000000
#10952:004400000000
#10956:004800000000
#11452:00140000
#11456:0014
#1145a:00000014
#11552:1414
#1155a:00140014
#11652:14
#03452:53
#03456:000000000023000000000000000000000000000000000000
#0355b:53
#03557:000000000023000000000000000000000000000000000000
#03652:53
#03656:000000000023000000000000000000000000000000000000
#04357:000000000023000000000000000000000000000000000000
#0435b:53
#04256:000000000023000000000000000000000000000000000000
#04252:53
#03855:53
#03852:53
#03958:63
#0395b:63
#04055:53
#04052:53
#002380:000000000012000022000000
#002320:000000000000000000000012
#003320:002200000000
#003380:000000000012000022000000
#004360:000000000012000022000000
#005360:000000120022000000000000
#006380:000000000012000022000000
#006320:000000000000000000000012
#007320:002200000000
#007380:000000000012000022000000
#008360:000000000012000022000000
#009360:000000120022000000000000
#013320:00000000000000000000001c
#014320:002c0000
#018320:130000000023000000000000
#018351:130000000023000000000000
#0193b1:000000000013000000000000
#019381:00000023
#019380:000000000013000000000000
#019350:00000023
#0203b0:130000000023000000000000
#020381:130000000023000000000000
#021321:000000000013000023000000
#021350:000000000013000023000000
#0233b0:00000013
#0243b0:23
#024320:0013
#025380:23
#024351:0013
#0253b1:23
#025341:00000012
#026341:22
#027321:000013
#027351:000000000000000000000023
#0273b0:000013
#027380:000000000000000000000023
#0293b0:13230000
#029381:13230000
#029322:000000130023000000000000
#029322:000000000000000013000023
#029351:000000000000000013000023
#0293b0:000000000000000013000023
#029383:000000000000000013000023
#031321:000000000000000000000013
#032321:002300000000
#031350:000000000000000000000013
#032350:002300000000
#032320:000000000000000013230000
#0333b0:000013230000000000000000
#034320:130000000023000000000000
#034360:000000000053000000000000000000000000000000000000
#034351:000000000013000000230000
#034383:000000000013000000230000
#034320:00000013
#035320:23
#0353b1:130000000023000000000000
#035371:000000000053000000000000000000000000000000000000
#035380:000000000013000000230000
#035353:000000000013000000230000
#0353b1:00000013
#0363b1:23
#036320:130000000023000000000000
#036360:000000000053000000000000000000000000000000000000
#036351:000000000013000000230000
#036383:000000000013000000230000
#036320:00000013
#037320:23
#038320:13
#038350:000000000023000000000000
#038351:13
#038381:000000000023000000000000
#0383b3:000000000013000000230000
#038321:00000013
#039321:23
#038350:00000013
#039350:23
#0393b3:13
#039383:000000000023000000000000
#039382:13
#039352:000000000023000000000000
#039321:000000000013000000230000
#0393b2:00000013
#0403b2:23
#039383:00000013
#040383:23
#040321:13
#040351:000000000023000000000000
#040350:13
#040380:000000000023000000000000
#0403b2:000000000013000000230000
#040320:00000013
#041320:23
#040351:00000013
#041351:23
#042320:130000000023000000000000
#042360:000000000053000000000000000000000000000000000000
#042351:000000000013000000230000
#042380:00000013
#043380:23
#0433b1:130000000023000000000000
#043371:000000000053000000000000000000000000000000000000
#043380:000000000013000000230000
#043351:00000013
#044351:23
#044320:130000000023000000000000
#044360:000000000053000000000000000000000000000000000000
#044381:000000000013000000230000
#044350:00000013
#045350:23
#0453b1:130000000023000000000000
#045371:000000000053000000000000000000000000000000000000
#045350:000000000013000000230000
#045381:00000013
#046381:23
#046351:000000000013230000000000
#046381:000000000000000013230000
#046321:000000000000000000000013
#047321:23
#0473b1:000013230000000000000000
#047351:000000000013230000000000
#047381:000000000000000013230000
#047321:000000000000000000000013
#048321:23
#0483b0:13000023
#048321:000000000013000000230000
#048352:000000000000000000130023
#048383:000000000000000000130023
#050363:14240000
#051353:00000013
#0523b3:23
#051322:00000013
#052382:23
#053352:132300000000
#053383:132300000000
#056323:142400000000
#056362:001222000000
#056381:001222000000
#0563a3:000014240000
#056382:000000122200
#056361:000000122200
#056323:000014
#057323:24
#056362:000000000012
#057362:22
#056381:000000000012
#057381:22
#0573a2:000000140024000000000000
#057361:00130000
#058361:23
#057322:000000142400
#0573a2:00000014
#0583a2:24
#059382:00000013
#060322:23
#0593b1:00000013
#060351:23
#0613b1:000000132300
#061352:000000001323
#061381:000000000013
#062381:23
#064351:13230000
#064382:13230000
#064322:0013
#064352:00000033
#065322:23
#0643b1:0013
#064381:00000033
#0653b1:23
#0653b1:000000000013000000230000
#065322:000000000013000000230000
#0663b2:000013000023000000000000
#066361:000000130023000000000000
#0663b1:000000000000000000000013
#0673b1:002300000000
#067362:132300000000
#068362:000000140024000000000000
#068322:000000000000000000000013
#069322:003300333300
#069352:000000330033000000330033
#070322:23
#070322:000013000023000000000000
#0703b1:000000130023000000000000
#070321:000000000000000000000013
#071321:002300000000
#0713b2:132300000000
#0733b2:000000000013000023000000
#073321:000000000013000023000000
#074321:000013000023000000000000
#074372:000000130023000000000000
#074322:000000000000000000000013
#075322:002300000000
#075371:132300000000
#076361:000000140024000000000000
#0763b1:000000000000000000000013
#0773b1:003300333300
#077381:000000330033000000330033
#0783b1:23
#0783b1:000013000023000000000000
#078322:000000130023000000000000
#0783b2:000000000000000000000013
#0793b2:002300000000
#079321:132300000000
#080321:000018280000000000000000
#0803a1:000000000014240000000000
#080361:000000000000000018280000
#080321:000000000000000000000018
#081321:28
#081361:000018280000000000000000
#081361:000000000014240000000000
#081361:000000000000000014240000
#081321:000000000000000000000018
#082321:28
#084361:14240000
#084381:000000000013230000000000
#084351:000000000000000013230000
#0843b1:000000000000000000000013
#0853b1:23
#085321:000013230000000000000000
#085381:00000013
#086321:23
#0853b2:00000013
#086352:23
#087382:132300000000
#087351:132300000000
#0903a1:142400000000
#090382:001222000000
#090363:001222000000
#090321:000014240000
#090362:000000122200
#090383:000000122200
#0903a1:000014
#0913a1:24
#090382:000000000012
#091382:22
#090363:000000000012
#091363:22
#091322:000000140024000000000000
#091373:00130000
#092373:23
#0913a2:000000142400
#091322:00000014
#092322:24
#092352:000000000013230000000000
#092382:000000000000000013230000
#092322:000000000000000000000013
#093322:23
#0933b2:000013230000000000000000
#093352:00000013
#0943b2:23
#093323:00000013
#094383:23
#095323:000000132300
#095382:000000001323
#095353:000000000013
#096353:23
#098383:13230000
#098352:13230000
#0983b2:0013
#098382:00000033
#0993b2:23
#098323:0013
#098353:00000033
#099323:23
#099323:000000000013000000230000
#0993b2:000000000013000000230000
#1003a2:142400000000
#1003a2:000000000000000000000000000000000000000000000000000000000000000000000000000000000000000000000000000000000000000000000000000000000000000000000000000000000000000000000000000000000000000000000000000000000000000000000000000000000000000000000000140000000000000000000000000000000000000000000000000000000000000000000000000000000000000000000000000000000000000000000000000000000000000000000000000000000000005400000000000000000000000000000000000000000000000000000000000000000000000000000000000000000000000000000000000000000000000000000000000000000000000000000000000000000000000000000000000000000000000000000000000000000000000000000000000000000000000000000000000000000000000000000000000000000000000000000000000000000000000000000000000000000000000000000000000000000000000000000000000000000000000000000000000000000000000000000000000000000000000000000000000000000000000000000000000000000000000000000000000000000000000000000000000000000000000000000000000000000000000000000000
#100322:00000000002c000000000000
#1003a2:000000000000000000140024
#1013a2:140000000000000000000000000000000000000000000000000000000000000000000000000000000000000000000000000000000000000000000000000000000000000000000000000000000000005400000000000000000000000000000000000000000000000000000000000000000000000000000000000000000000000000000000000000000000000000000000000000000000000000000000000000000000000000000000000000000000000000000000000000000000000000000000000000000000000000000000000000000000000000000000000000000000000000000000000000000000000000000000000000000000000000000000000000000000000000000000000000000000000000000000000000000000000000000000000000000000000000000000000000000000000000000000000000000000000000000000000000000000000000000000000000000000000000000000000000000000000000000000000000000000000000000000000000000000000000000000000000000000000000000000000000000000000000000000000000000000000000000000000000000000000000000000000000000000000000000000000000000000000000000000000000000000000000000000000000000000000000000000
#101322:002c00000000
#102362:000000140024000000000000
#103362:14000024
#1043a2:142400000000
#1043a2:000000000000000000000000000000000000000000000000000000000000000000000000000000000000000000000000000000000000000000000000000000000000000000000000000000000000000000000000000000000000000000000000000000000000000000000000000000000000000000000000140000000000000000000000000000000000000000000000000000000000000000000000000000000000000000000000000000000000000000000000000000000000000000000000000000000000005400000000000000000000000000000000000000000000000000000000000000000000000000000000000000000000000000000000000000000000000000000000000000000000000000000000000000000000000000000000000000000000000000000000000000000000000000000000000000000000000000000000000000000000000000000000000000000000000000000000000000000000000000000000000000000000000000000000000000000000000000000000000000000000000000000000000000000000000000000000000000000000000000000000000000000000000000000000000000000000000000000000000000000000000000000000000000000000000000000000000000000000000000000000
#104322:00000000002c000000000000
#1043a2:000000000000000000140024
#1053a2:140000000000000000000000000000000000000000000000000000000000000000000000000000000000000000000000000000000000000000000000000000000000000000000000000000000000005400000000000000000000000000000000000000000000000000000000000000000000000000000000000000000000000000000000000000000000000000000000000000000000000000000000000000000000000000000000000000000000000000000000000000000000000000000000000000000000000000000000000000000000000000000000000000000000000000000000000000000000000000000000000000000000000000000000000000000000000000000000000000000000000000000000000000000000000000000000000000000000000000000000000000000000000000000000000000000000000000000000000000000000000000000000000000000000000000000000000000000000000000000000000000000000000000000000000000000000000000000000000000000000000000000000000000000000000000000000000000000000000000000000000000000000000000000000000000000000000000000000000000000000000000000000000000000000000000000000000000000000000000000000
#105322:002c00000000
#1073b2:000000000013000023000000
#107323:000000000013000023000000
#108363:140000000000000000000000000000000000000000000000000000000000000000000000000000000000000000000000000000000000000000000000000000000000000000000000000000000000000000000000000000000000000000000000000000542800000000000000000000000000000000000000000000000000000000000000000000000000000000000000000000000000000000000000000000000000000000000000000000000000000000000000000000000000000000000000000000000000000000000000000000000000000000000000000000000000000000000000000000000000000000000000
#108322:000000140024000000000000
#108362:00000014
#109362:000000000000000000000000000000000000000000000000000000000000000000000000000000542800000000000000000000000000000000000000000000000000000000000000000000000000000000000000000000000000000000000000000000000000000000000000000000000000000000000000000000000000000000000000000000000000000000000000000000000000000000000000000000000000000000000000000000000000000000000000000000000000000000000000000000000000000000000000000000000000000000000000000000000000000000000000000000000000000000000000
#109323:142400000000
#110363:000000140024000000000000
#111363:14000024
#112363:140000000000000000000000000000000000000000000000000000000000000000000000000000000000000000000000000000000000000000000000000000000000000000000000000000000000000000000000000000000000000000000000000000542800000000000000000000000000000000000000000000000000000000000000000000000000000000000000000000000000000000000000000000000000000000000000000000000000000000000000000000000000000000000000000000000000000000000000000000000000000000000000000000000000000000000000000000000000000000000000
#112322:000000140024000000000000
#112362:00000014
#113362:000000000000000000000000000000000000000000000000000000000000000000000000000000542800000000000000000000000000000000000000000000000000000000000000000000000000000000000000000000000000000000000000000000000000000000000000000000000000000000000000000000000000000000000000000000000000000000000000000000000000000000000000000000000000000000000000000000000000000000000000000000000000000000000000000000000000000000000000000000000000000000000000000000000000000000000000000000000000000000000000
#113323:142400000000
#114363:000018280000000000000000
#114323:000000000014240000000000
#114323:000000000000000018280000
#114363:000000000000000000000018
#115363:28
#115323:000018280000000000000000
#115363:000000000014240000000000
#115363:000000000000000014240000
#115363:000000000000000000000018
#116363:28
#116363:00142400
#116322:00142400
#116362:00000014
#117362:24
#1163a3:00000014
#1173a3:24
#117323:000000000014000000240000
#118353:00132300
#118382:00132300
#118382:00000013
#119382:23
#118353:00000013
#119353:23
#1193b3:000000000013000000230000
#120383:00122200
#120342:00122200
#120362:00000012
#121362:22
#1203a3:00000012
#1213a3:22
#121323:000000000012000000220000
