This file was generated by Ched 2.7.0.0.
#TITLE ""
#ARTIST ""
#DESIGNER ""
#DIFFICULTY 0
#PLAYLEVEL
#SONGID ""
#WAVE ""
#WAVEOFFSET 0
#JACKET ""
#REQUEST "ticks_per_beat 480"
#00002: 4
#BPM01: 220
#00008: 01
#TIL00: ""
#HISPEED 00
#MEASUREHS 00
#0101a:14
#01114:14
#0121a:14
#01314:14
#01418:14
#01512:14
#01618:14
#01712:14
#0181a:14
#01810:41
#0191a:14
#02014:14
#02114:14
#02218:14
#02318:14
#02412:14
#02512:14
#02618:14
#02712:14
#0281a:14
#02914:14
#03018:14
#03112:14
#0321a:14
#03314:14
#05012:0016
#05018:26
#0501f:21
#05418:1616
#05212:16
#05218:0016
#05512:1616
#05618:16
#05612:0016
#05718:16
#05712:0016
#05812:0016
#05818:26
#05918:1616
#06012:16
#06018:0016
#06112:1616
#06218:16
#06418:0016
#06512:16
#06518:0016
#06818:16
#06812:0016
#06918:16
#06912:0016
#07212:16
#07218:0016
#07312:16
#07318:0016
#07618:16
#07612:0016
#07718:16
#07712:0016
#08012:16
#08018:0016
#08112:16
#08118:0016
#08318:0016
#08418:0016
#08412:26
#08410:41
#08618:16
#08612:0016
#09012:16
#09018:0016
#09112:16
#09118:0016
#09218:0016
#09212:26
#09418:16
#09412:0016
#09612:16
#09618:0016
#09818:0016
#09812:16
#10212:1616
#10318:1616
#10618:16
#10612:0016
#10718:16
#10712:0016
#11012:1616
#11118:1616
#11418:16
#11412:0016
#11518:16
#11512:0016
#08512:1616
#08718:1616
#09712:16
#09718:0016
#12214:14
#12318:14
#0381f:11
#08212:26
#11618:26
#12412:24
#03410:41
#05110:41
#06610:41
#10010:41
#0023a0:14
#0043a0:24
#006320:14
#008320:24
#0343a0:14
#0353a0:24
#036320:14
#037320:24
#038380:14
#039380:24
#040340:14
#041340:24
#0423a0:14
#0433a0:24
#044340:14
#045340:24
#046380:14
#047380:24
#048320:14
#049320:24
#051380:1626
#053320:1626
#062380:0016
#063380:26
#063320:0016
#064320:26
#066320:16
#066340:00000036
#067320:0026
#070380:16
#070360:00000036
#071380:0026
#074320:16
#074340:00000036
#075320:0026
#078380:16
#078360:00000036
#079380:0026
#088320:1626
#089380:1626
#093320:1626
#095380:1626
#099320:1626
#100380:16
#100360:00000036
#101380:0026
#104320:16
#104340:00000036
#105320:0026
#108380:16
#108360:00000036
#109380:0026
#112320:16
#112340:00000036
#113320:0026
#116380:16
#117380:26
#118320:14
#119320:24
#1203a0:14
#1213a0:24
