This file was generated by Ched 2.7.0.0.
#TITLE ""
#ARTIST ""
#DESIGNER ""
#DIFFICULTY 0
#PLAYLEVEL
#SONGID ""
#WAVE ""
#WAVEOFFSET 0
#JACKET ""
#REQUEST "ticks_per_beat 480"
#00002: 4
#BPM01: 220
#00008: 01
#TIL00: ""
#HISPEED 00
#MEASUREHS 00
#01015:001300131300
#01018:26
#01212:13
#01218:001300000000
#0121b:0013
#01215:000013
#01417:000000131300
#01415:13
#01418:13
#01412:00240000
#0141a:00240000
#01918:00000013
#01912:000013000000000000000013
#0191b:13130000
#0211b:000000130000000000000013
#02112:130000000013000000000000
#02115:000000130000000013000000
#02118:13
#02218:001300000000
#0221b:000000000000000000000013
#02212:000000000000000000130013
#02316:000000000013000000000000
#02314:000013
#0231b:00130000
#02319:0013
#02417:00131300
#02412:130013000013000000000000
#02512:00130013
#0251b:000000000013000000000000
#02515:0013
#02518:000013
#0311b:000000000013000000000013
#03118:000000130000000013000000
#03112:00000013
#03115:0013
#03212:00001313
#03217:000013
#0321b:000000000000000000000013
#03319:001300001300
#03314:00130013
#03316:13
#03312:0013
#03317:000000000013000000000000
#0331b:000000000000000000000013
#03412:000000000013000000000000
#03416:13
#0341b:00000013
#03417:000000000013000000000000
#03410:41
#03517:13
#0351b:000000000013000000000000
#03512:13000013
#03516:000000000013000000000000
#03612:13
#0361b:13130000
#03616:000000000013000000000000
#0371b:13
#03712:0014
#03716:000014
#0371a:000000000014
#0401a:14
#04016:001400000000
#04012:140013
#04015:000000000013000000000000
#04018:000000000013000000000000
#0401b:000013
#0411b:0013
#04119:00000013
#04112:0013
#0501b:00130013
#05012:000000000013000000000013
#05017:0013
#05016:000013
#0501a:24
#0501f:21
#05117:130013
#05112:00001313
#05116:00130000
#0511b:000033130000000000000000
#05110:41
#05216:13
#05212:000000130013000000000000
#05215:00000013
#0521b:000000000000000000000013
#0531b:0013
#05315:1313
#05312:000000000000000013000013
#05318:000013000000000000130000
#05712:00130000
#0571b:000000000013000000000000
#05714:0013
#05719:000013
#05716:00000013
#05717:000000000000000000000013
#05718:24
#06717:0013
#0671b:000013
#06712:000000000013000000000013
#06716:00000013
#06816:00130000
#06817:00000013
#0681b:000000000013000000000000
#0691b:001300001300
#06912:000000000013000000000013
#06916:00130013
#06917:0013
#07116:0013
#07112:000013
#0711b:000000000013000000000013
#07118:00000013
#07115:000000000013
#07219:00000013
#07212:000000000013000000000000
#07214:000013
#07216:000000000000000000000013
#07217:00131300
#0731b:13230000
#07312:00230000
#08312:12
#08318:12260000
#08316:0026
#08314:00000026
#02015:00130013
#02018:000000000013000000000013
#02012:0013
#0201b:000013
#0261b:001300001300
#02612:000000000013000000000013
#02615:00130013
#02618:2323
#0271b:000013000000000000000013
#02715:000000130000000013000000
#02718:23
#03817:13000013
#0381b:000000000013000000000000
#03812:13
#03816:000000000013000000000000
#0381f:11
#03813:000033
#03916:13000013
#03912:000000000013000000000000
#0391b:13
#03917:000000000013000000000000
#0581b:000000130000000000000013
#05816:000000000013000000000000
#05812:24000013
#07516:0013
#07517:00000013
#0751b:000000000013000000000013
#07512:000013
#07617:00130000
#07616:00000013
#07612:000000000013000000000000
#07712:001300001300
#07717:00130013
#07716:0013
#0771b:000000000013000000000013
#08216:0012
#0821c:0012
#08212:23
#08118:000000000013000000000013
#0811b:00130013
#08115:001300001300
#08112:2313
#07918:000000000013
#07912:000000000013000000000013
#07915:00000013
#0791b:000013
#07917:0013
#08017:000000000000000000000013
#08019:000013
#08016:00131300
#0801b:000000000013000000000000
#08014:00000013
#11316:0013
#11312:001300001300
#1131b:000000000013000000000013
#11318:00000013
#11315:000000000013
#11417:00131300
#11419:00000013
#11412:000000000013000000000000
#11414:000013
#11416:000000000000000000000013
#10517:0013
#1051b:000013
#10512:000000000013000000000013
#10515:00000013
#10518:000000000013
#10616:00131300
#10614:00000013
#1061b:000000000013000000000000
#10619:000013
#10617:000000000000000000000013
#10712:130000230023000000000000
#1071b:000000230023000000000000
#10112:0013
#10117:000000000013000000000013
#10116:000013
#1011b:00000013
#1021b:000000130013000000000000
#10216:00130000
#10212:130000000000000000000023
#10217:000000000000000000000023
#07416:000013000000000000000013
#0741b:000013000000000000000013
#05518:0013
#05514:000013
#05512:000000000013000000000000
#0551a:00000013
#05516:000000000000000000000013
#05515:13
#0041b:13
#00416:000000320032000032320032
#00818:13
#00816:000032320032000000000000
#00814:000032
#00813:00000032
#00812:000000000000000000000032
#0131b:00000013
#01312:00000013
#01314:000000000033
#01319:000000000033
#01315:000000000000000000000033
#01318:000000000000000000000033
#0541b:000000000000000013000013
#05412:0013
#05415:00000013
#05418:130000000013000000000000
#05916:130013
#0591b:00001313
#05917:00130000
#05912:000033130000000000000000
#12117:00130013
#1211b:2313
#12112:000000000033000033000000
#12016:00130013
#12012:2313
#1201b:000033
#12217:00130000
#12214:0013
#12216:00000013
#12212:00130000
#12219:0013
#1221b:00000013
#1231b:13130000
#12316:00130000
#12317:00000013
#12319:0013
#12314:0013
#12312:00000013
#1241b:13
#12412:13
#04212:13000013
#04216:0000001300000000
#0421b:0000001300000000
#04217:13
#0431b:13000013
#04317:0000001300000000
#04316:13
#04312:0000001300000000
#04418:00000013
#04415:000000000000000000000013
#0441a:24
#04416:002400000000
#04412:002400
#04518:000000000000000000000013
#0451b:13
#04612:13000013
#04615:000000000013000000000000
#04815:000000000013000000000000
#04818:00130000
#04812:13
#04715:000013000013000013000000
#04718:00131300
#0471b:000000000000000000000013
#01815:130000000013000000000013
#0181b:00001313
#01812:000000130000000013000000
#01810:41
#01717:13
#01716:00130000
#0171b:0023
#01718:003300000000000000000000
#01719:003300000000
#01714:003300
#01713:000000000033000000000000
#01615:001300000000
#01612:0013
#01618:000013
#0161b:13
#03012:000000000013000000000013
#03015:000013
#03018:0013
#0301b:00130013
#08412:26130013
#0841b:230000000013000000000013
#08416:0013
#08417:000013
#08410:41
#08512:000033130000000000000000
#08516:130013
#0851b:00000013
#08517:00130000
#0861b:000000130013000000000000
#08618:26000013
#08612:000000000000000000000013
#08712:0013
#08718:1313
#0871b:000000000000000013000013
#08715:000013000000000000130000
#09112:000000000013000000000000
#09114:240013
#09116:000000000000000000000013
#0911b:00230000
#09119:0023
#09117:00000023
#09217:000000000013000000000000
#09212:000000230000000000000013
#0921a:24
#0921b:00000023
#09418:000000000013000013000000
#09415:0013
#09412:14230023
#0941b:000000000000000000000013
#08915:0013
#08919:000013
#0891b:000000000013000000000000
#08913:00000013
#08917:000000000000000000000013
#08918:23
#0961b:00130000
#09616:240000000013000000000000
#09619:0013
#09612:000000000000000000000013
#09614:000013
#09617:00000013
#09317:130013
#0931b:000033130000000000000000
#09312:00001323
#09316:00230000
#06015:000000000013000013000000
#06018:0013
#0601b:13130013
#06012:000000000000000000000013
#06115:001300001300
#06112:000000000013000000000013
#06417:13
#06412:00130000
#0641b:000000000013000000000000
#06317:00000013
#0631b:00130000
#06314:000013
#06319:0013
#06316:130000000013000000000000
#06312:000000000000000000000013
#06216:14000013
#06212:00130000
#06217:000000000013000000000000
#06214:0013
#0621b:000000000000000000000013
#06219:000013
#1181b:13
#00916:000032320032000012000000
#07817:000013000000000000000013
#07812:000013000000000000000013
#09816:13
#0981b:00130000
#09812:000000000013000000000000
#09716:00000013
#09712:00130000
#09719:000013
#09714:0013
#09717:130000000013000000000000
#0971b:000000000000000000000013
#1081b:000000000013000000000000
#10816:000023000000000000000023
#10812:23000023
#1091b:001300130000
#10916:000000000013000000000013
#10917:000013
#10912:00000013
#11212:000000000013000000000000
#11217:000023000000000000000023
#1121b:23000023
#11012:000000130013000000000000
#11017:00130000
#1101b:130000000000000000000023
#11117:001300001300
#1111b:000000000013000000000013
#11112:00130013
#11116:0013
#08812:000000000000000013000013
#0881b:0013
#08818:00000013
#08815:230000000013000000000000
#10316:001300001300
#10317:0013
#1031b:00130013
#10312:000000000013000000000013
#09518:001300001300
#0951b:000000000013000000000013
#09515:2323
#09512:00230023
#02818:000000000013000000000000
#02815:000000000000230000000013
#0281b:00230023
#02812:00230000
#0561a:24
#05612:002400000000
#05619:002400
#05613:0024
#05618:000024
#05614:000000000024
#00218:26
#00618:26
#09012:24
#0901a:002400000000
#09013:002400
#09019:0024
#09014:000024
#09018:000000000024
#11516:00242424
#1151b:230000000023000000000023
#11512:002300002300
#11616:24
#02918:230023
#02915:000000000023000000000000
#0291b:000000000023000000000000
#02912:000000230000000000000023
#1001b:23000023
#10017:000023000000000000000023
#10010:41
#10416:000023000000000000000023
#10412:23000023
#09912:0033
#0651b:0033
#00512:000032320032000000000000
#06610:41
#03852:23
#03856:000000000063000000000000
#0395b:23
#03957:000000000053000000000000
#07355:000013
#07358:000013
#07457:000000000013000000000000
#07452:000000000013000000000000
#07456:000063000000000000000063
#0745b:000063000000000000000063
#06656:000000000013000000000000
#0665b:000000000013000000000000
#04052:000023
#0405b:000023
#04055:000000000063000000000000
#04058:000000000053000000000000
#05758:14
#08252:13
#10758:000013
#10755:000013
#00258:16
#06756:001300000000
#0675b:001300000000
#07057:000000000013000000000000
#07052:000000000013000000000000
#07157:001300000000
#07152:001300000000
#0505a:14
#10057:000000000013000000000000
#10052:000000000013000000000000
#0295b:000000000000000000000013
#02952:000000000000000000000013
#02958:000063
#0045b:13
#00858:13
#00658:16
#0135b:00000063
#01352:00000053
#05352:000013000000000000000063
#05355:53
#05358:001300000000
#0545b:000000000000000000000063
#05458:63
#05157:63
#0515b:00230000
#05956:63
#05952:00230000
#10157:001300000000
#10152:001300000000
#10456:000000000013000000000000
#1045b:000000000013000000000000
#10556:001300000000
#1055b:001300000000
#10856:000000000013000000000000
#1085b:000000000013000000000000
#0815b:00130013
#08152:0013
#03656:000000000063000000000000
#03456:23
#03452:000000000063000000000000
#03557:23
#0355b:000000000063000000000000
#01455:23
#01458:23
#01452:00340000
#0145a:00440000
#02457:0053
#02452:000000000053000000000000
#02755:000053
#02752:000000000000000000000013
#0275b:000000000000000000000013
#03258:001300000000
#04356:63
#04352:0000002300000000
#04257:63
#0425b:0000002300000000
#07557:001300000000
#07552:001300000000
#04855:000000000053000000000000
#04858:00630000
#04755:000023
#01058:16
#01757:53
#01756:00530000
#0175b:0013
#0315b:000000000000000000000063
#09452:14
#08556:53
#08552:00530000
#08557:00530000
#09357:53
#0935b:00530000
#08452:16
#0845b:53
#09154:14
#09656:14
#0875b:000013000000000000000053
#08755:001300000000
#08758:63
#06457:63
#06356:63
#0605b:13
#06256:14
#11556:00141414
#11656:14
#1235b:13
#12052:13
#1185b:13
#01855:13
#00956:000052
#0215b:000000000000000000000013
#03052:000000000000000000000053
#05852:14
#07857:000053000000000000000053
#07852:000053000000000000000053
#07856:000000000013000000000000
#0785b:000000000013000000000000
#07956:001300000000
#0795b:001300000000
#0925a:14
#09856:53
#09757:53
#1095b:001300000000
#10956:001300000000
#11252:000000000013000000000000
#11257:000000000013000000000000
#11352:001300000000
#11357:001300000000
#1025b:000000000053000000000000
#10256:00530000
#11052:000000000063000000000000
#11057:00630000
#05555:53
#08852:000000000000000000000053
#08855:53
#08658:16
#08958:53
#1215b:13
#12252:13
#05256:13
#002320:120000320032000032320032
#003320:000032320032000032320032
#004320:32
#004360:000000320032000032320032
#005360:32
#005320:000032320032000032000000
#005330:00000032
#005340:000000000032
#005350:000000000000000000000032
#006360:320032320032000032320032
#007360:000032320032000032320000
#008360:320032320032000000000000
#008340:000032
#008330:00000032
#008320:000000000000000000000032
#009320:32
#009360:000032320032000032000000
#010320:22
#010380:00132300
#0103b0:00000013
#0113b0:23
#011321:13
#011331:003300000000000000000000
#011341:003300000000
#011351:00230000
#011380:00130000
#011390:003300
#0113a0:000000000033000000000000
#0113b0:0023
#011321:0013
#011331:000000000000003300000000
#011341:000033
#011351:00000023
#011380:00000013
#011390:000000000033
#0113a0:000000000000000000000033
#0123b0:23
#012320:00132300
#0123b0:00000013
#0133b0:23
#013361:13
#013321:00230000
#013370:00130000
#0133b0:0023
#013361:0013
#013321:00000033
#013341:000000000033
#013351:000000000000000000000033
#014351:33
#014321:00240000
#0133b0:00000013
#013390:000000000033
#013380:000000000000000000000033
#014380:33
#0143a0:00240000
#014320:00000013
#015320:23
#0153b1:13
#0153a1:003300000000000000000000
#015391:003300000000
#015381:00230000
#015350:00130000
#015340:003300
#015330:000000000033000000000000
#015320:0023
#0153b1:0013
#0153a1:000000000000003300000000
#015391:000033
#015381:00000023
#015350:00000013
#015340:000000000033
#015330:000000000000000000000033
#016320:23
#0163b0:00132300
#016320:00000013
#017320:23
#017371:13
#017381:003300000000000000000000
#017391:003300000000
#0173b1:00230000
#017360:00130000
#017340:003300
#017330:000000000033000000000000
#017320:0023
#0183b0:13230000
#019350:000000000013000000230000
#0203b0:13230000
#021380:000000000013000000000000
#0213b0:000023
#021350:000000000000000000000013
#022320:002300000000
#022320:00130000
#022360:0023
#0223b1:0013
#022371:00000023
#023371:00000013
#024371:23
#024321:000000000013000000000000
#025361:23
#024370:0013
#0253b0:23
#027380:000000000013000023000000
#027351:000013
#027321:000000000000000000000023
#028351:00001323
#029381:13230000
#029351:000000000013000023000000
#029380:000013
#0293b0:000000000000000000000023
#030320:000000000000000000000013
#031350:00230000
#0313b0:000000000000000000000013
#032380:002300000000
#034360:13000023
#034320:000000000033000000000000
#035370:13000023
#0353b0:000000000033000000000000
#036360:000000000013000000000000
#037320:23
#038320:13000023
#038360:000000000033000000000000
#038330:000033
#0393b0:13000023
#039370:000000000033000000000000
#040350:000000000013000000000000
#040320:000033
#041350:23
#040381:000000000013000000000000
#0403b1:000033
#041381:23
#042371:13000023
#0423b1:0000003300000000
#043361:13000023
#043321:0000003300000000
#045351:000013000023000000000000
#045380:000000000013000023000000
#045321:000000000000000013000023
#046381:00001323
#0463b1:000000000000000000000013
#0473b1:002300000000
#047351:000013
#047321:000000000000000000000023
#048381:00130000
#0483b1:00000023
#048350:000000000013000000000000
#048320:00000023
#050320:13
#050360:00230000
#051370:1323
#0513b0:000033330000000000000000
#0523b0:13
#052370:00230000
#052370:0013
#0523b0:00000023
#053350:13
#053320:002300000000
#053320:000000000000000000000013
#054360:00230000
#054381:13
#0543b1:00230000
#0543b1:000000000000000000000013
#055371:00230000
#055350:13
#055320:00230000
#0563a0:142400000000
#056321:001424000000
#056390:000014240000
#056331:000000142400
#056380:000000001424
#056341:000000000014
#057341:24
#0583b1:0013
#058371:00000023
#059361:1323
#059321:000033330000000000000000
#060361:13
#060321:00230000
#061381:132300000000
#0613b1:000000130023000000000000
#061381:000000132300
#0613b1:000000000000000000130023
#063361:13
#063321:00230000
#064371:13
#0643b1:00230000
#064361:0013
#064321:00000033
#065361:3333
#065321:00330023
#064370:00000013
#0653b0:330000330033330000000000
#065370:00000023
#066320:13
#066360:000033000023000000000000
#0663b1:000013000023000000000000
#066321:00000013
#066361:000000000000000000000033
#067361:002300000000
#0663b0:000000000000000000000013
#0673b0:002300000000
#068370:13
#0683b0:00230000
#068360:000000000013000000000000
#068320:00000023
#068320:000000000000000000000013
#069360:002300000000
#0703b0:13
#070370:000033000023000000000000
#070321:000013000023000000000000
#0703b1:00000013
#070371:000000000000000000000033
#071371:002300000000
#070320:000000000000000000000013
#071320:002300000000
#072320:13230000
#073320:000000000013000000000000
#073350:000000532300
#0733b1:000000000013000000000000
#073381:000000532300
#0743b1:133300000000
#074371:000000000023000000000000
#074360:001300000000
#074320:000000000023000000000000
#0743b0:000000000000000000130033
#075370:002300000000
#074361:000000000000000000000013
#075321:002300000000
#076361:13
#076321:00230000
#076371:000000000013000000000000
#0763b1:00000023
#0763b1:000000000000000000000013
#077371:002300000000
#078321:133300000000
#078361:000000000023000000000000
#078370:001300000000
#0783b0:000000000023000000000000
#078320:000000000000000000130033
#079360:002300000000
#078371:000000000000000000000013
#0793b1:002300000000
#0803b1:13230000
#0843b1:13
#084371:00230000
#085361:1323
#085321:000033330000000000000000
#085370:00130000
#0853b0:0023
#086320:13
#086360:00230000
#086360:0013
#086320:00000023
#087380:13
#0873b0:002300000000
#0873b0:000000000000000000000013
#088370:00230000
#088351:13
#088321:00230000
#088321:000000000000000000000013
#089361:00230000
#089380:13
#0893b0:00230000
#090320:142400000000
#0903a1:001424000000
#090330:000014240000
#090391:000000142400
#090340:000000001424
#090381:000000000014
#091381:24
#092321:0013
#092361:00000023
#093371:1323
#0933b1:000033330000000000000000
#094371:13
#0943b1:00230000
#095351:132300000000
#095321:000000130023000000000000
#095351:000000132300
#095321:000000000000000000130023
#097371:13
#0973b1:00230000
#098361:13
#098321:00230000
#098371:0013
#0983b1:00000033
#099371:3333
#0993b1:00330023
#098360:00000013
#099320:330000330033330000000000
#099360:00000023
#100360:13
#100320:000033000023000000000000
#100371:000013000023000000000000
#100361:00000013
#100321:000000000000000000000033
#101321:002300000000
#100370:000000000000000000000013
#101370:002300000000
#102360:00130000
#102320:00000023
#1023b1:000000000013000000000000
#102371:00000023
#102371:000000000000000000000013
#1033b1:002300000000
#104371:13
#1043b1:000033000023000000000000
#104360:000013000023000000000000
#104370:00000013
#1043b0:000000000000000000000033
#1053b0:002300000000
#104361:000000000000000000000013
#105361:002300000000
#1063b1:13230000
#1073b1:000000000013000000000000
#107381:000000532300
#107320:000000000013000000000000
#107350:000000532300
#108370:13
#1083b0:002300000000
#108361:000013000023000000000000
#108371:00000013
#1083b1:000000000000000000000023
#108360:000000000000000000000013
#109360:002300000000
#110370:00130000
#1103b0:00000023
#110321:000000000013000000000000
#110361:00000023
#110361:000000000000000000000013
#111321:002300000000
#112361:13
#112321:002300000000
#112370:000013000023000000000000
#112360:00000013
#112320:000000000000000000000023
#112371:000000000000000000000013
#113371:002300000000
#114321:13230000
#1163b1:00132300
#116350:00132300
#116380:000000000000000013000023
#116321:000000000000000013000023
#117351:13230000
#1173b0:13230000
#117380:000000000013000000230000
#117321:000000000013000000230000
#118321:00132300
#118380:00132300
#118350:000000000000000013000023
#1183b1:000000000000000013000023
#119381:13230000
#119320:13230000
#119350:000000000013000000230000
#1193b1:000000000013000000230000
#1203b1:130000330000000033330033
#120371:0033
#1213b1:23
#121320:130000330033000033330000
#121360:0033
#122320:23
