This file was generated by Ched 2.7.0.0.
#TITLE ""
#ARTIST ""
#DESIGNER ""
#DIFFICULTY 0
#PLAYLEVEL
#SONGID ""
#WAVE ""
#WAVEOFFSET 0
#JACKET ""
#REQUEST "ticks_per_beat 480"
#00002: 4
#BPM01: 220
#00008: 01
#TIL00: ""
#HISPEED 00
#MEASUREHS 00
#02215:000000000000000000000013
#02218:00000013
#02418:000013000013000000000000
#02412:13
#02415:00130000
#02512:00130000
#02518:000000000013000000000000
#02515:0013
#0251b:00000013
#03315:0013
#03318:00000013
#03312:13
#03618:13
#03615:00130000
#03612:000000000000000000003300000000130000000000000000
#03714:000000140014
#03718:000014
#05015:000000000013000013000013
#05018:00001313
#0501a:24
#0501f:21
#05115:000013
#05118:13000013
#0511b:000033130000000000000000
#05110:41
#0531b:0013
#05319:000033
#05318:000000000000000000000033
#06712:0013
#06715:00000013
#06718:000000000013000000000000
#07115:0013
#0711b:000000000013000000000000
#0261b:00002313
#02612:23130000
#02618:23
#02615:0023
#0381b:13
#03818:000000000013000000000000
#0381f:11
#03912:13
#03915:000000000013000000000000
#04018:000000000013000000000000
#0401b:000013
#0741b:001300000000
#07415:000000000000000000000013
#00412:13
#00812:13
#01312:13000013
#0131b:13
#01318:00130000
#01315:000000000000130000000033
#01314:000000000033
#05515:00000013
#05518:0013
#0591b:00000013
#05912:000033130000000000130000
#05915:13
#0581b:0013
#05812:24
#12213:0013
#12214:00000013
#12212:00130000
#12218:13
#1231b:00130000
#1231a:0013
#12319:00000013
#12315:13
#12418:13
#12412:13
#01415:14000013
#01418:0013
#01412:00260000
#0171b:13
#01718:003333333333230000000000
#01915:00130000
#01918:13
#01914:000000000033000000000000
#0181b:00000013
#01815:0013
#01818:000000000013000000000000
#01810:41
#0301b:00130000
#03018:000000000000130000000013
#03015:00000013
#06015:000000000013000000000013
#0601b:0013
#06012:000013
#06018:00000013
#0601a:14
#11812:16
#06418:000000000013000000000000
#06212:00130000
#06217:000000000013000000000000
#06214:0013
#0621b:000000000000000000000013
#06219:000013
#06216:00000013
#01012:00130000
#01015:0013
#01018:26000013
#01212:00130000
#01215:0013
#01218:00000013
#0161b:00130000
#01615:0013
#01618:00000013
#02118:00130000
#02115:13
#02119:000000000033000000000000
#02012:00000013
#02018:0013
#02015:000000000013000000000000
#02712:23130000
#02718:23
#02715:000000000033000033000000
#02912:000000331333000000000000
#02918:000000331333000000000000
#02915:23
#0291b:23
#03112:00130000
#03115:0013
#03118:00000013
#0321b:0013
#0341b:130000000033000000000000
#03410:41
#03512:130000000033000000000000
#04115:0013
#04118:00000013
#0421b:000000000013000000000000
#04312:000000000013000000000000
#04415:00000013
#04418:242400
#04414:002400000000
#04412:000000000000000000000033
#04518:130000000000000000000033
#04512:330033000013000033000000
#0451b:000033000013000033000000
#04515:000000000000000000000033
#04618:000000000013000000000000
#0461b:00003333
#04715:001300000000
#04712:00333300
#04818:13
#05218:000000000013000000000000
#05215:0013
#05212:140000000000000000330013
#05212:14
#05412:0013
#05414:000033
#05415:000000000000000000000033
#05712:00140000
#05716:0014
#0571a:00000014
#0611b:13
#06112:000013000013000000000000
#06118:00130000
#0631b:00130000
#06316:000000000013000000000000
#06319:0013
#06312:000000000000000000000013
#06314:000013
#06317:00000013
#07215:00130000
#07218:0013
#0721b:00000013
#07315:13
#07318:00230000
#07515:0013
#07518:00000013
#0751b:000000000013000000000000
#07718:0013
#07715:00000013
#0771b:003300000000
#07812:001300000000
#07818:000000000000000000000013
#07918:0013
#07912:000000000013000000000000
#08018:00130000
#08015:0013
#08012:00000013
#08114:00140014
#08118:0014
#0811a:24
#08418:000000000013000013000013
#08415:00001313
#08412:24
#08410:41
#08518:000013
#08515:13000013
#08512:000033130000000000000000
#08712:0013
#08715:000000000000000000000013
#08714:000033
#08918:00000013
#08915:0013
#08615:000000000013000000000000
#08618:0013
#0861b:000000000000000000330013
#0861a:24
#0881b:0013
#08818:000000000000000000000013
#08819:000033
#09315:000013
#09318:13000013
#0931b:000033130000000000000000
#09212:0013
#0921a:24
#1011b:0013
#10118:00000013
#10115:000000000013000000000000
#10518:0013
#10512:000000000013000000000000
#10812:230013000000000000230013
#10818:000013000000000000000013
#10318:0013
#10315:00000013
#1031b:003300000000
#1061a:00140000
#10616:0014
#10612:00000014
#10716:14
#1071a:00240000
#10918:0013
#10915:00000013
#10912:000000000013000000000000
#11115:0013
#11118:00000013
#11112:003300000000
#11315:0013
#1131b:000000000013000000000000
#11412:00140000
#11416:0014
#1141a:00000014
#1121b:230013000000000000230013
#11215:000013000000000000000013
#06915:00000013
#06918:0013
#06912:003300000000
#09716:00000013
#09719:000013
#09714:0013
#09717:000000000013000000000000
#09712:00130000
#0971b:000000000000000000000013
#0951b:000013000013000000000000
#09515:00130000
#09512:13
#09516:0024
#09418:000000000013000000000013
#09415:00000013
#0941b:000013
#09412:1413
#09617:00000013
#09614:000013
#09612:000000000000000000000013
#09619:0013
#09616:000000000013000000000000
#0961b:00130000
#09815:000000000013000000000000
#08316:0024
#08312:00240000
#0831a:00000024
#05619:25
#00218:26
#00618:26
#12012:26
#12018:000033
#08218:24
#0911a:00240000
#09116:0024
#09112:00000024
#11512:24
#11514:0024
#11518:00240024
#11614:24
#10015:23000023
#10010:41
#10418:23000023
#10218:000000000000000000000023
#0281a:00240000
#02816:0024
#02812:00000024
#09012:25
#0111a:003300000000000000000033
#01119:003300000033
#01118:00330033
#01117:000000003333003333000000
#01513:003300000000000000000033
#01514:003300000033
#01515:00330033
#01516:000000003333003333000000
#0231b:000000000033330033000000
#06515:000000000033000000000000
#09918:000000000033000000000000
#12115:000000000033000000000000
#06610:41
#0385b:23
#03858:000000000053000000000000
#03952:23
#03955:000000000063000000000000
#07355:000013
#07458:000000000013000000000000
#0745b:006300000000
#07455:000000000000000000000063
#0665b:000000000013000000000000
#0405b:000023
#04058:000000000053000000000000
#00258:16
#06755:001300000000
#0505a:14
#00452:13
#00852:13
#00658:16
#01352:00000053
#05158:63
#0515b:00230000
#05955:63
#05952:00230000
#0585b:0023
#05852:14
#03655:00630000
#03652:0000000000230000
#01455:24
#01452:00360000
#07552:001300000000
#01058:16
#0175b:63
#01758:0013
#02458:000000000053000000000000
#08452:14
#0605a:14
#12355:13
#12258:13
#12052:16
#11852:16
#01955:00530000
#02158:00630000
#02752:00530000
#02755:000000000000000000000013
#02955:530000000000000000000013
#02952:002300
#02958:002300
#0295b:530000000000000000000013
#03255:001300000000
#0345b:23
#03552:23
#0425b:000000000053000000000000
#04352:000000000053000000000000
#04558:53
#04552:000000000023000000000000
#0455b:000000000023000000000000
#04455:00000063
#04658:000000000053000000000000
#04755:006300000000
#05255:0063
#05252:140000000000000000000023
#05355:001300000000
#0535b:0053
#05452:0063
#06256:14
#07058:000000000013000000000000
#07152:001300000000
#07852:005300000000
#07858:000000000000000000000053
#07855:000000000013000000000000
#0795b:001300000000
#08154:00140014
#08158:0014
#08258:14
#05759:15
#08752:0063
#08758:001300000000
#08755:000000000000000000000063
#08555:53
#08552:00230000
#08658:0053
#0865b:000000000000000000000023
#0865a:14
#0885b:0053
#08858:000000000000000000000053
#0925a:14
#09252:0023
#09358:53
#0935b:00230000
#10852:000053000000000000000053
#10858:000053000000000000000053
#10855:000000000013000000000000
#1085b:000000000013000000000000
#11654:14
#10052:000000000013000000000000
#10058:000000000013000000000000
#11554:0014
#11558:00140014
#10152:001300000000
#10158:001300000000
#1045b:000000000013000000000000
#10455:000000000013000000000000
#1055b:001300000000
#10555:001300000000
#1075a:000014
#10955:001300000000
#1095b:001300000000
#1125b:000063000000000000000063
#11255:000063000000000000000063
#11258:000000000013000000000000
#11252:000000000013000000000000
#11358:001300000000
#11352:001300000000
#09152:15
#09656:14
#09452:14
#06352:000000000000000000000063
#0975b:000000000000000000000053
#0113b0:13
#0113a0:003300000000000000000033
#011390:003300000033
#011380:00330033
#011370:000000003333333333000000
#0123b0:23
#013320:00000013
#013340:000000000033
#013350:000000000000000000000033
#014350:34
#014320:00260000
#015320:13
#015330:003300000000000000000033
#015340:003300000033
#015350:00330033
#015360:000000003333333333000000
#016320:23
#0173b0:13
#017380:003333333333230000000000
#018320:13
#018350:00230000
#019350:00130000
#019340:000000000033000000000000
#019320:00000023
#0203b0:13
#020380:00230000
#021380:00130000
#021390:000000000033000000000000
#0213b0:000023
#021350:000000000000000000000013
#022320:000033330000000000000000
#022350:0023
#0233b0:000000130033330033000000
#023380:00000023
#024380:000000000013000000000000
#0253b0:23
#027320:00130000
#027350:000000000033000033000023
#029350:130000000000000033000023
#029320:000000335333000000000000
#0293b1:130000000000000033000023
#029381:000000335333000000000000
#031351:000000000000000000000013
#032351:002300000000
#0343b1:130000000033000000000000
#034381:00000023
#035321:130000000033000000000000
#035351:00000023
#036351:00130000
#036321:000000000000000000003300000000530000000000000000
#037351:23
#0383b1:13000023
#038381:000000000033000000000000
#039321:13000023
#039351:000000000033000000000000
#040381:130033000033000000000000
#0403b1:000033
#041381:23
#0423b1:130000000033000000000000
#042381:00000023
#043321:130000000033000000000000
#043351:00000023
#044351:00000013
#044321:000000000000000000000033
#045321:330033000033000033000000
#045351:000000000000000000000033
#046351:23
#045380:130000000000000000000033
#0453b0:000033000033000033000000
#046380:23
#046380:000000000013000000000000
#0463b0:000000000000330000330023
#047350:001300000000
#047320:000000330000330023000000
#048350:00130023
#048381:000000000013000000230000
#051381:1323
#0513b1:000033330000000000000000
#052351:0013
#052321:000000000000000000330033
#053351:002300000000
#0533b1:0013
#053391:000033
#053381:000000000000000000000033
#054381:00230000
#054321:0013
#054341:000033
#054351:000000000000000000000033
#055351:00230000
#056391:153535
#056371:003500350035
#057391:25
#0583b1:000000000013330000000000
#058381:00000023
#059351:1323
#059321:000033330000000000000000
#061361:000000143434
#062361:24
#063321:000000000000000000000013
#064351:00230000
#064351:0013
#064321:00000033
#065351:330000000033330000000000
#065321:00330023
#066381:13
#0663b1:000033000023000000000000
#066321:00000013
#066351:000000000000000000000033
#067351:002300000000
#068381:13000023
#0683b1:000000330033000000000000
#068351:000000000000000000000013
#069321:000033230000000000000000
#0703b1:13
#070381:000033000023000000000000
#070351:00000013
#070321:000000000000000000000033
#071321:002300000000
#071381:00000013
#071391:000000000033
#0713a1:000000000000000000000033
#0723b1:23
#073351:000000000013000023000000
#0743b1:133300000000
#074381:000000000023000000000000
#074351:000000000000000000130033
#075321:002300000000
#076351:13000023
#076321:000000330033000000000000
#076381:000000000000000000000013
#0773b1:000033230000000000000000
#078321:133300000000
#078351:000000000023000000000000
#078381:000000000000000000130033
#0793b1:002300000000
#079351:00000013
#079341:000000000033
#079331:000000000000000000000033
#080321:23
#085351:1323
#085321:000033330000000000000000
#086381:0013
#0863b1:000000000000000000330033
#087381:002300000000
#087321:0013
#087341:000033
#087351:000000000000000000000033
#088321:00230000
#0883b1:0013
#088391:000033
#088381:000000000000000000000033
#0893b1:00230000
#090321:153535
#090341:003500350035
#091321:25
#092321:000000000013330000000000
#092351:00000023
#093381:1323
#0933b1:000033330000000000000000
#095361:000000143434
#096361:24
#0973b1:000000000000000000000013
#098381:00230000
#098381:0013
#0983b1:00000033
#099381:330000000033330000000000
#0993b1:00330023
#100351:13
#100321:000033000023000000000000
#1003b0:13
#100380:000033000023000000000000
#100350:00000013
#100320:000000000000000000000033
#101320:002300000000
#1003b1:00000013
#100381:000000000000000000000033
#101381:002300000000
#102351:13000023
#102321:000000330033000000000000
#102381:000000000000000000000013
#1033b1:000033230000000000000000
#104381:13
#1043b1:000033000023000000000000
#104320:13
#104350:000033000023000000000000
#104380:00000013
#1043b0:000000000000000000000033
#1053b0:002300000000
#104321:00000013
#104351:000000000000000000000033
#105351:002300000000
#105351:00000013
#105341:000000000033
#105331:000000000000000000000033
#106321:23
#1073a1:000000140034000024000000
#108321:133300000000
#108351:000000000023000000000000
#108380:133300000000
#1083b0:000000000023000000000000
#108320:000000000000000000130033
#109350:002300000000
#108381:000000000000000000130033
#1093b1:002300000000
#110381:13000023
#1103b1:000000330033000000000000
#110351:000000000000000000000013
#111321:000033230000000000000000
#1123b1:133300000000
#112381:000000000023000000000000
#112350:133300000000
#112320:000000000023000000000000
#1123b0:000000000000000000130033
#113380:002300000000
#112351:000000000000000000130033
#113321:002300000000
#113381:00000013
#113391:000000000033
#1133a1:000000000000000000000033
#1143b1:23
#1163b1:00133300
#116391:000000000000000033000033
#1173a1:33330000
#117381:000000000033000000230000
#118381:00133300
#1183a1:000000000000000033000033
#119391:33330000
#1193b1:000000000033000000230000
#120381:000000130000000033330000
#1203b1:0033
#121381:23
#121350:130000000033330000230000
#121320:00330000
