This file was generated by Ched 2.7.0.0.
#TITLE ""
#ARTIST ""
#DESIGNER ""
#DIFFICULTY 0
#PLAYLEVEL
#SONGID ""
#WAVE ""
#WAVEOFFSET 0
#JACKET ""
#REQUEST "ticks_per_beat 480"
#00002: 4
#BPM01: 220
#00008: 01
#TIL00: ""
#VOLUME: ""
#HISPEED 00
#MEASUREHS 00
#01216:000000000000000013130000
#01212:13131300
#0121b:00000013
#01217:000013130000000000000000
#01812:00130016
#01815:160000000000160000000016
#01818:000013
#0181b:130000000013000000000000
#01810:41
#0191b:130000000000000000000013
#01912:000013000000000000130000
#01916:000000140014000000000000
#0211b:000000130000000000000013
#02112:130000000013000000000000
#02116:00130000
#02216:000000130000130000000013
#02212:000013000000000000130013
#0221b:0013
#0231b:000000130000000013000000
#02317:000000130013000000000000
#02312:0013
#0241b:00131300
#02412:000013000013000000000000
#02417:13000013
#02416:000000000000000000000000000000000013000000000000
#02515:000000130000000013000000
#0251b:00130013
#02518:000000000013000000000000
#02512:0013
#03012:00130000
#0301b:00130000
#03019:000000000013000000000000
#03014:0013
#03016:00000013
#03018:000000000000000000000013
#03017:000013
#03015:000000000000000000000013
#0311b:000000130013000000000013
#03116:000000140000140014000000
#03112:000000000000000000130013
#03217:000012
#0321c:000000000000120000120012
#03212:001300000000
#03317:001200000000
#03312:120000120012000000000000
#03316:000000000000140000000014
#03318:00000014
#03314:000014
#03612:13
#0361b:130000130013000000000000
#03617:000000000013000000000000
#03712:0014
#03716:000014
#0371a:000000140014
#04012:130000000013000000000000
#04016:140014000013000000000000
#04017:000013
#0401b:001300001300
#04112:00000013
#04116:0013
#04616:130000000013000000000000
#04612:13000013
#0461b:000000000000000000000013
#0471b:000000000013000000000000
#04712:00160000
#04715:00001613
#04718:000013000000000000130000
#04812:1313
#0481b:130000000000001300000000
#04818:000000000013000000000000
#04816:00130000
#05115:000016
#05112:00001313
#05116:13
#0511b:00130013
#05110:41
#05212:1400000000130000
#05216:000000130000130000000013
#0521b:000000000013000000130000
#05217:13
#0531b:1313
#05312:00001313
#05315:000016
#0571b:000000000013000000000013
#05717:000013
#05718:26
#07115:00001313
#07112:000013
#0711b:000000000000130000000013
#07118:000000000013000000001300
#0721b:00131300
#07212:000000000019000016000013
#07218:00000013
#07312:0000132c0000000000000000
#07315:13
#08312:12
#08317:12
#08314:0028
#08315:00260000
#08313:0000002a
#02717:000013
#02715:00161600
#0271b:000000000013000013000000
#02712:2c1300000000
#05817:000000130013130000000013
#0581b:0000000000130000
#05812:27131313
#08217:0012
#0821c:0012
#08212:26
#08118:00130015
#08114:0014
#08112:2c
#10518:00001313
#1051b:001300001300
#10512:000000000000130000000013
#10515:000000000013000000001300
#0551b:000000000013000000000000
#05515:000000000000160016000013
#05512:13000013
#05516:13
#0541b:13000013
#05412:000000000013000000000000
#05415:000000161600
#05417:13
#00216:001200000000
#0021c:00120000
#0021a:000012
#00218:240000000000000000000012
#00215:00000032
#00416:000000120000000012000000
#0041c:000000000012000000120000
#00414:000000000000000000000012
#0041a:001200000000
#00412:12
#0051a:12
#00512:001200000000
#00518:00120000
#00514:000000000012000000000000
#00516:000012
#01016:000013130000000000000000
#0101b:23131300
#01017:000000000000000013130000
#01012:00000013
#0111b:000000130013000000130013
#01112:131300131300
#01116:001300000000001300000000
#01117:000013000013
#0131b:130000000000133300000000
#01312:000000000000130000000000000000000000003535353535
#0131a:000000000000000034140000
#01317:0000001300000000
#01316:0013000000130000
#01412:15260000
#0141b:00001313
#01416:000000000000000013130000
#01418:00260000
#0161b:13131300
#01616:000014140000000014140000
#01612:0000001400001300
#0161a:0000000000000014
#02015:160000000000160013000016
#0201b:00130000
#02018:00000016
#02012:130000000013000000000000
#02615:00160016
#02612:2c00130000002c0000000013
#0261b:000000000013000013000000
#03412:13000013
#03417:000000000013000000001300000000000000000000000000
#0341a:14
#0341b:000000000000001300000000
#03410:41
#0381b:13000013
#03812:140000000013000000000000
#03816:000000000013000000000000000000003300000000000000
#0381f:11
#04416:000000000000000000130013
#04412:2c2926000000
#0451b:131300001300
#04517:001300001300
#04516:000000000013000000000000
#05017:00131300
#05012:00000013
#05016:13
#0501a:24
#0501f:21
#0591b:00130013
#05917:13
#05915:000016
#05912:13131313
#06017:17
#06016:00131300
#06012:13
#0601b:00130013
#06117:13
#06116:0013
#06112:00130000
#0611b:00000013
#07918:00001313
#07918:0013
#0791b:000013
#07915:000000000013000000001300
#07915:000000000013000000000000
#07912:000000000000130000000013
#11712:1313
#11713:00230023
#11918:000000000000000000000013
#11915:000000000013
#1191b:1313
#1191a:00230023
#12212:00120000
#12218:0012
#1221a:00000012
#12216:00120012
#12214:0012
#1221b:13
#1231a:00120000
#12316:00120012
#12318:1212
#12314:0012
#12312:00000012
#1231c:12
#1241a:12
#12414:12
#0031a:001200001200
#00318:000000000000000000000012
#00314:00320012
#0031c:000000000012000000000000
#06916:000000140000140000140014
#11612:0013
#11616:28
#11613:00230023
#1211b:2313
#12118:00130013
#12015:00130013
#12012:2313
#00618:001200000000
#00612:00120000
#00614:240012
#00616:000000000000000000000012
#00619:00000032
#00714:001200001200
#00716:000000000000000000000012
#0071a:00320012
#00712:000000000012000000000000
#0351b:13000013
#03516:000000000013000000001300000000000000000000000000
#03512:140000000000001300000000
#04216:1300001300000000
#0421a:14140000
#04212:0000331300000000
#10716:001400001400000000000000
#1071b:231300000000
#10712:000000230013000000000000
#10715:000000000000001300230013
#10718:000000231313
#0081c:120012
#00814:000012000000000000120000
#00816:000000000000000000000012
#00812:000000000012000000000000
#00818:00120000
#01516:140014140014140014140014
#01512:001300000000001300000000
#0151b:000013000013
#02814:000000000014000000000000
#02813:000015
#02812:000000000000000000000016
#02818:00232425
#03912:13000013
#0391a:14
#03917:000000000013000000000000000000000000000000000000
#0391b:000000000013000000000000
#02916:000000000000000000000000000000000000000000000000000000000000000000000000000000000000000000000000240000000000000000000000000000000000000000000000000000000000000024000000000000000000000000000000000000000000000000000000000000000000000000000000000000000000000000000000000000000000000000000000000000000000000014140000000000000000000000000000000000000000000000000000000000000000000000000000
#0291b:000000000023000023000000
#02912:000000230000000023000026
#02918:260000000000000000000026
#04317:1300001300000000
#04312:14140000
#0431b:0000331300000000
#06215:16
#0621b:00130000
#06217:000000000015150000000000
#06214:000000000000000015150000
#06212:000000000000000000000013
#0741a:14000014
#07412:130013000000000000130013
#07415:000014000000000000000014
#07517:0013
#07512:000013
#0751b:000000000013000000000013
#07516:00000013
#07616:00131300
#07617:13000013
#07612:000000000013000000000013
#0761a:000000000000000000000014
#08612:2c0000130013000000130000
#08612:00000013
#0861b:0000130000130000
#08617:000000000000130000000013
#08715:000000131600
#0871b:00000013
#08712:13000013
#08718:000000000013000000000000
#09216:000000130013130000000013
#09212:0000000000130000
#0921b:00231323
#09215:26
#08912:000000130013000000000000
#0891b:13000013
#08915:260000161600
#08918:000000000000000000000013
#08812:13000013
#08815:260000161600
#0881b:000000130013000000000000
#09312:00130013
#09316:13
#09315:000016
#0931b:13231323
#09415:16
#09417:00131300
#0941b:13
#09412:00230023
#09817:000000000013000000000000
#0981b:13130000
#09812:00002424
#09118:001313000000
#09115:000000230013001616001616
#09112:26000023
#0911b:0023
#1041b:000000000013000000000000
#10416:24000024
#10412:000024000000000000000024
#1111a:001400140000
#11112:00140014
#11116:000000000014000014000014
#11012:130000000000130000130014
#1101b:13131300
#11017:000000000013000000000000
#1101a:000000000000000000000024
#10312:001400140000
#1031a:00140014
#10316:000000000014000014000014
#10112:001300001300
#1011b:000000000013000000000013
#10116:00000013
#10117:0013
#10216:00131300
#10217:13000013
#10212:000000000013000000000027
#10219:000000000000000000000025
#10616:0013000000000000
#1061b:13
#10612:000000130013000000000000
#10615:000000191300
#10618:000000000000000000160013
#09516:132300000000
#09517:000000132300
#09512:000000000000000000230023
#0951b:000000230023000000000000
#1141b:13002313
#11412:23131300
#11416:0013000000000000
#11415:000000000015000000000000
#11417:0000000000130000
#10815:000014000000000000000014
#1081a:14000014
#10812:230023000000000000230023
#06716:0013
#0671b:000013
#06712:000000000013000000000013
#06717:00000013
#06817:000000130000130000000017
#06816:13000013
#0681b:000000000013000000000000
#0991b:000000000033130000000000
#09916:0000000000130000
#09912:24242424
#10012:000000000013000000000000
#10016:24000024
#1001a:000024000000000000000024
#10010:41
#11312:000000000015000000000000
#11314:000015
#11317:0013
#11319:00000013
#11316:000000000000000000000015
#11812:13
#1181b:0013
#1181a:00230023
#09612:00130000
#09614:000000000015150000000000
#09617:000000000000000015150000
#0961b:000000000000000000000013
#09615:26
#09712:130000130000000000000013
#09714:000000000015150000000000
#09717:000000000000000015150000
#06612:13000013
#06610:41
#0701b:13000013
#07716:000000140000140000140014
#07812:14000014
#0781b:130013000000000000130013
#07817:000014000000000000000014
#08012:00131619
#08015:000000000013000000000000
#08018:000013
#0801b:000000000000000000000013
#08515:000016
#08517:13
#0851b:00001313
#08512:00130013
#0841b:00130013
#08416:0013
#08412:2c
#08410:41
#06512:0013
#06516:000000000000000000000000000000000000000000000000000000000000000000000000000000000000000000000000000000000000000000000000000000000000000000000000000000000000000000000000000000000000000000000000000000000000000000000000000000000000000000000000000000000000000000000000000000000000000000000000000000000000000000000000000000000000000000000000000000000000000000000000000000000000000000000000000000000000000000000000000000000000000000000000000000000000000000000000000000000000000000000000000000000000000000000000000000000000000000000000000000000000000000000000000000000000000000000000000000000000000000000000000000000000000000000000000000000000000000000000000000000000000000000000000000000000000000000000000000000000000000000000000000000000000000000000000000000000000000000000000000000000000000000000000000000000000000000000000000000000000000000000000000000000000000000000000000000000000000000000000000000000000000000000000000000000000000000000000000000000000000000000000000000000000000000000000000000000000000000000000000000000000000000000000000000000000000000000000000000000000000000000000000000000000000000000000000000000000000000000000000000000000000000000000000000000000000000000000000000000000000000013000000000000000000000000000000000000000000000000000000000000000000000000000000000000000000000000000000000000000000000000000000000000000000000000000000000000000000000000000000000000000000000000000000000000000000000000000000000000000000000000000000000000000000000000000000000000000000000000000000000000000000000000000000000000000000000000000000000000000000000000000000000000000000000000000000000000000000000000000000000000000000000000000000000000000000000000000000000000000000000000000000000000000000000000000000000000000000000000000000000000000000000000000000000000000000000000000000000000000000000000000000000000000000000000000000000000000000000000000000000000000000000000000000000000000000000000000000000000000000000000
#0651b:000000000033130000000000
#06517:0000000000130000
#11217:000014000000000000000014
#11212:14000014
#1121b:230023000000000000230023
#0631b:130000130000000000000013
#06317:000000000015150000000000
#06314:000000000000000015150000
#06412:13130000
#06416:000000000013000000000000
#10919:000000000015000000000000
#10917:000015
#10916:0013
#10914:00000013
#10915:000000000000000000000015
#05618:26
#05616:002600000026
#05614:002626
#05612:0026
#11513:00000027
#11516:0026
#11515:00250000
#11512:2c0000000024000000000024
#1151a:002400002400
#09012:26
#09014:002600000026
#09016:002626
#09018:0026
#01712:0026
#0505a:14
#05056:53
#0545b:53
#05457:53
#05252:1400000000230000
#05256:000000000000630000000063
#05257:63
#0365b:000000000063000000000000
#03652:53
#03657:000000000063000000000000
#00258:14
#0105b:13
#01056:00630000
#01057:00000053
#01256:00000063
#01257:00630000
#0135b:6363
#01352:00630000
#01357:0000002300000000
#01356:0023000000230000
#0135a:00000064
#01656:00540064
#01652:0000002400000000
#0165a:0000000000000024
#02452:000000000053000000000000
#02456:000000000000000000000000000000000023000000000000
#02457:00000023
#0245b:0063
#01452:25360000
#01458:00460000
#01456:00000063
#02256:000000530000000000000013
#02252:000000000000000000000013
#0225b:0023
#02752:000000000000000000000013
#02756:000000000000000000000013
#02757:000053
#0275b:000053
#03452:63
#03457:000000000023000000005300000000000000000000000000
#0345a:14
#0345b:000000000000002300000000
#03756:13
#03752:13
#04057:000053
#04056:000000000023000000000000
#04052:000000000023000000000000
#0405b:000053
#04156:13
#04152:13
#0515b:00630000
#05957:53
#0595b:00630000
#05857:0053
#05852:17
#0585b:0000000000230000
#08252:36
#08154:0034
#08158:00430045
#00654:14
#0255b:00000043
#02552:0033
#04557:006300006300
#0455b:000063
#04556:000000000053000000000000
#05658:46
#05652:0036
#05656:003600000036
#05654:004646
#05758:46
#11656:48
#11556:0046
#11553:00000037
#11555:00350000
#03852:140000000063000000000000
#03856:000000000023000000000000000000000000000000000000
#0385b:53
#03256:004300000000
#03252:003300000000
#0355b:53
#03556:000000000023000000006300000000000000000000000000
#03552:000000000000002300000000
#06652:000000000013000000000000
#0665a:000000000014000000000000
#00452:12
#0085c:12
#01855:16
#0185b:23
#0215b:000000000000000000000013
#02052:23
#02958:000000000000000000000046
#0295b:000053
#02956:000000000000000000000000000000000000000000000000000000000000000000000000000000000000000000000000000000000000000000000000000000000000000000000000000000000000000000000000000000000000000000000000000000000000000000000000000000000000000000000000000000000000000000000000000000000000000000000000000000000000000024240000000000000000000000000000000000000000000000000000000000000000000000000000
#02952:000000000000000063000036
#0315b:000000000000000000000063
#03952:63
#03957:000000000023000000000000000000000000000000000000
#0395b:000000000053000000000000
#04256:5300005300000000
#04252:0000005300000000
#0425a:14
#04357:6300006300000000
#0435b:0000006300000000
#04352:14
#04858:000000000063000000000000
#04856:00530000
#04852:0023
#0485b:000000000000002300000000
#04755:00000023
#04758:00000023
#06057:17
#05352:001300000000
#05357:001300000000
#0535b:63
#06255:16
#06252:000000000000000000000063
#06752:001300000000
#0675a:001400000000
#0745a:240000000014000000240000
#07452:000063000000000000000063
#07455:000064000000000000000064
#07457:000000000013000000000000
#0755a:001400000000
#07557:001300000000
#07352:000036
#07358:000046
#0765a:000000000000000000000024
#07657:53
#07656:0063
#08452:1c
#08852:63
#08855:46
#0895b:63
#08955:36
#09352:00530000
#09356:63
#09256:0063
#09252:0000000000230000
#09255:16
#09455:16
#09052:36
#09054:004600000046
#09056:003636
#09058:0046
#09152:36
#09655:16
#0965b:000000000000000000000053
#1045b:000000000043000000000000
#10456:000000000034000000000000
#1055b:004300000000
#10556:003400000000
#04452:005600
#11152:00140014
#1115a:0014
#1105a:000000000000000000000014
#11052:630000000000000000000024
#1105b:0053
#12052:13
#1035a:00140014
#10352:0014
#10257:23
#10256:0023
#10252:000000000000000000000037
#10656:0023000000000000
#1065b:53
#11856:12
#1235c:12
#12252:13
#08652:1c
#08657:000000000000530000000053
#0865b:0000000000230000
#1145b:53
#11456:0023000000000000
#11452:0063
#11457:0000000000230000
#1215b:13
#10855:000054000000000000000054
#1085a:240000000014000000240000
#10852:000053000000000000000053
#10857:000000000013000000000000
#06856:63
#06857:000000000000530000000047
#05552:63
#05556:63
#0995b:0053
#09956:0000000000230000
#10052:000000000033000000000000
#10056:000000000044000000000000
#10152:003300000000
#10156:004400000000
#09752:000000000000000000000063
#03058:000000000000000000000013
#03055:000000000000000000000013
#0705b:000000000013000000000000
#07052:000000000014000000000000
#0715b:001300000000
#07152:001400000000
#07852:240000000014000000240000
#0785b:000053000000000000000053
#07857:000054000000000000000054
#07856:000000000013000000000000
#07952:001400000000
#07956:001300000000
#06552:0063
#06556:000000000000000000000000000000000000000000000000000000000000000000000000000000000000000000000000000000000000000000000000000000000000000000000000000000000000000000000000000000000000000000000000000000000000000000000000000000000000000000000000000000000000000000000000000000000000000000000000000000000000000000000000000000000000000000000000000000000000000000000000000000000000000000000000000000000000000000000000000000000000000000000000000000000000000000000000000000000000000000000000000000000000000000000000000000000000000000000000000000000000000000000000000000000000000000000000000000000000000000000000000000000000000000000000000000000000000000000000000000000000000000000000000000000000000000000000000000000000000000000000000000000000000000000000000000000000000000000000000000000000000000000000000000000000000000000000000000000000000000000000000000000000000000000000000000000000000000000000000000000000000000000000000000000000000000000000000000000000000000000000000000000000000000000000000000000000000000000000000000000000000000000000000000000000000000000000000000000000000000000000000000000000000000000000000000000000000000000000000000000000000000000000000000000000000000000000000000000000000000000023000000000000000000000000000000000000000000000000000000000000000000000000000000000000000000000000000000000000000000000000000000000000000000000000000000000000000000000000000000000000000000000000000000000000000000000000000000000000000000000000000000000000000000000000000000000000000000000000000000000000000000000000000000000000000000000000000000000000000000000000000000000000000000000000000000000000000000000000000000000000000000000000000000000000000000000000000000000000000000000000000000000000000000000000000000000000000000000000000000000000000000000000000000000000000000000000000000000000000000000000000000000000000000000000000000000000000000000000000000000000000000000000000000000000000000000000000000000000000000000000
#0655b:0053
#06557:0000000000230000
#08552:00530000
#08752:53
#0875b:001300000000
#08756:001300000000
#1095a:001400000000
#10957:001300000000
#11257:000064000000000000000064
#11252:240000000014000000240000
#1125b:000063000000000000000063
#11256:000000000013000000000000
#11352:001400000000
#11356:001300000000
#01752:0016
#0635b:000000000000000000000053
#002360:000000000012000032000000
#002350:00000032
#002320:000000000000000000000032
#003320:003200000000
#003340:00320000
#003360:000000000032000022000000
#005390:000000000000000000000000000000000000000000000000000000000000000000000000000000000000000000000000000000000000000000000000000000000000000000000000000000000000000000000000000000000000000000000000000000000000000000000000000000000000000000000000000000000000000012000000000000000000000000000052330000000000000000000000000000000000000000000000000000000000000000000000000000000000000000000000
#0053a0:000000000000000000000000000000000000000000000000000000000000000000000000000000000000000000000000000000000000000000000000000000000000000000000000000000000000000000000000000000000000000000000000000000000000000000000000000000000000000000000000000000000000000000000000000000000000000000000000005200000000000000000000000000523300000000000000000000000000000000000000000000000000000000000000
#0053b0:000000000000000000000000000000000000000000000000000000000000000000000000000000000000000000000000000000000000000000000000000000000000000000000000000000000000000000000000000000000000000000000000000000000000000000000000000000000000000000000000000000000000000000000000000000000000000000000000000000000000000000000000000000000052000000000000000000000000005233000000000000000000000000000000
#0053c0:00000000000000000000000000000000000000000000000000000000000000000000000000000000000000000000000000000000000000000000005200000000
#0063c0:22
#006380:000000000012000032000000
#006390:00000032
#0063c0:000000000000000000000032
#0073c0:003200000000
#0073a0:00320000
#007380:000000000032000022000000
#0093a0:120000000000000000000000000000000000000000000000000000000000000032000000000000000000000000000052000000000000000000000000000000000000000000000000000000000000000000000000000000000000000000000000000000000000000000000000000000000000000000000000000000000000000000000000000000000000000000000000000000000000000000000000000000000000000000000000000000000000000000000000000000000000000000000000
#009390:000000000000000000000000000000000000000000000000000000000000000000000000000000000000000000000000335200000000000000000000000000000000000000000000000000000000000032000000000000000000000000000052000000000000000000000000000000000000000000000000000000000000000000000000000000000000000000000000000000000000000000000000000000000000000000000000000000000000000000000000000000000000000000000000
#009380:000000000000000000000000000000000000000000000000000000000000000000000000000000000000000000000000000000000000000000000000000000000000000000000000000000000000000000000000000000000000000000000000335200000000000000000000000000520000000000000000000000000000000000000000000000000000000000000000000000000000000000000000000000000000000000000000000000000000000000000000000000000000000000000000
#009370:000000000000000000000000000000000000000000000000000000000000000000000000000000000000000000000000000000000000000000000000000000000000000000000000000000000000000000000000000000000000000000000000000000000000000000000000000000003352000000000000000000000000005200000000000000000000000000000000000000000000000000000000000000000000000000000000000000000000000000000000000000000000000000000000
#009360:000000000000000000000000000000000000000000000000000000000000000000000000000000000000000000000000000000000000000000000000000000000000000000000000000000000000000000000000000000000000000000000000000000000000000000000000000000000000000000000000000000000000000033520000000000000000000000000000220000000000000000000000000000000000000000000000000000000000000000000000000000000000000000000000
#009351:000000000000000000000000000000000000000000000000000000000000000000000000000000000000000000000000120000000000000000000000000000000000000000000000000000000000000032000000000000000000000000000052000000000000000000000000000000000000000000000000000000000000000000000000000000000000000000000000000000000000000000000000000000000000000000000000000000000000000000000000000000000000000000000000
#009341:000000000000000000000000000000000000000000000000000000000000000000000000000000000000000000000000000000000000000000000000000000000000000000000000000000000000000000000000000000000000000000000000335200000000000000000000000000520000000000000000000000000000000000000000000000000000000000000000000000000000000000000000000000000000000000000000000000000000000000000000000000000000000000000000
#009331:000000000000000000000000000000000000000000000000000000000000000000000000000000000000000000000000000000000000000000000000000000000000000000000000000000000000000000000000000000000000000000000000000000000000000000000000000000003352000000000000000000000000005200000000000000000000000000000000000000000000000000000000000000000000000000000000000000000000000000000000000000000000000000000000
#009321:000000000000000000000000000000000000000000000000000000000000000000000000000000000000000000000000000000000000000000000000000000000000000000000000000000000000000000000000000000000000000000000000000000000000000000000000000000000000000000000000000000000000000033520000000000000000000000000000220000000000000000000000000000000000000000000000000000000000000000000000000000000000000000000000
#010361:00130000
#010321:0023
#010371:00000013
#0113b1:23
#012371:00130000
#0123b1:0023
#012361:00000013
#013321:23
#0133b0:13230000
#013360:0053000000000000
#013321:00132300
#013371:0000005300000000
#0133b0:000000000000133300000000
#013360:0000000000530000
#0133a0:000000000000000034340000
#013320:000000000000000000000000000000000000003535353535
#014320:35
#014380:00260000
#014360:00000013
#015320:23
#016360:00142400
#016320:0000005400000000
#016360:00000014
#0163a0:0000000000000054
#017360:24
#017321:132300000000000000000000
#017360:001424000000000000000000
#017321:000014240000000000000000
#017370:000000152500000000000000
#017321:000000001525000000000000
#017380:000000000016260000000000
#0183b0:13
#018370:00230000
#0193b0:000000000013000000000000
#019360:00000023
#020320:13
#020360:00230000
#021360:000000000013000000000000
#0213b0:000023
#021371:000013
#021321:000000000000000000000023
#022361:00130023
#0223b1:0053
#023371:00000013
#024321:23
#024321:000000000013000000000000
#024361:000000000000000000000000000000000053000000000000
#025321:23
#0243b0:0013
#024370:00000053
#0253b0:23
#027370:000013
#027320:000000000000000000000023
#0273b1:000013
#027361:000000000000000000000023
#0293b1:000013
#029361:000000000000000000000000000000000000005400000000
#029381:000000000000000000000026
#029320:000000000000000013000026
#029360:00000000000000000000000000000000000000000000000000000000000000000000000000000000000000000000000000000054000000000000000000000000
#0313b0:000000000000000000000013
#032360:002300000000
#034320:130000000023000000000000
#034370:000000000053000000000000000000000000000000000000
#034371:000000000013000000230000
#0343b1:000000000000005300000000
#0353b1:130000000023000000000000
#035361:000000000053000000000000000000000000000000000000
#035360:000000000013000000230000
#035320:000000000000005300000000
#036320:13
#036370:00230000
#0363b0:000000000013000000000000
#037360:23
#036371:000000000013000000000000
#037321:23
#0383b1:130000000023000000000000
#038361:000000000053000000000000000000000000000000000000
#038320:000000000013000000000000
#038360:000033
#038370:00000023
#039320:130000000023000000000000
#039370:000000000053000000000000000000000000000000000000
#0393b1:000000000013000000000000
#039361:00000023
#040361:000000000013000000000000
#0403b1:000033
#041361:23
#040320:000000000013000000000000
#040370:000033
#041320:23
#0413b0:0013
#041370:00000023
#042360:13
#042320:0000333300000000
#042370:00000023
#042361:0000001300000000
#0423b1:00000023
#043371:13
#0433b1:0000333300000000
#043361:00000023
#043370:0000001300000000
#043320:00000023
#044320:000000001600000000230000
#045370:001300000000
#045320:000000000023000000000000
#045361:000000000013000000000023
#0453b1:000033
#045370:000013
#045320:000000000000000000000023
#0463b0:0013
#046360:00000023
#046370:000000000000000000000013
#047320:002300000000
#047350:000000000000000013530000
#047320:000000000000000000000023
#047381:000000000000000013530000
#0473b1:000000000000000000000023
#048361:00130000
#048321:0053
#048351:00000023
#048380:000000000013000000230000
#0483b0:000000000000005300000000
#050360:13
#050320:00230000
#0503b0:000000000013230000000000
#050370:000000000000000013230000
#050320:000000000000000000000013
#051320:23
#051360:000013230000000000000000
#0513b1:00130000
#051361:0023
#052371:13
#0523b1:00230000
#052361:00001323
#052321:0000000000530000
#052361:000000000000000000000013
#053321:002300000000
#0533b0:13
#053370:002300000000
#0533b0:000000000000000000000013
#0543b0:33
#054360:00230000
#054371:13
#054321:00230000
#054321:000000000000000000000013
#055321:33
#055371:00230000
#055360:13
#0553b0:00230000
#057320:00130000
#057360:000000000023000000000000
#057360:0013
#057320:000023
#057320:00000013
#057360:000000000000000000000023
#058370:00001323
#0583b0:0000000000530000
#059370:13
#0593b0:002300000000
#0593b0:00130000
#059360:0023
#060320:000000000013230000000000
#060360:000000000000000013230000
#0603b0:000000000000000000000013
#0613b0:23
#061370:000013230000000000000000
#061320:000000000013230000000000
#061360:000000000000000013230000
#0613b0:000000000000000000000013
#0623b0:23
#062320:000000000000000000000013
#063370:00230000
#0633b0:000000000000000000000013
#064360:00230000
#0643b0:0013
#064360:00000033
#0653b0:330000000033330000230000
#065360:00330000
#065370:0000000000530000
#064321:00000013
#065371:33
#065321:000000330033330000230000
#065361:000000000000000000000000000000000000000000000000000000000000000000000000000000000000000000000000000000000000000000000000000000000000000000000000000000000000000000000000000000000000000000000000000000000000000000000000000000000000000000000000000000000000000000000000000000000000000000000000000000000000000000000000000000000000000000000000000000000000000000000000000000000000000000000000000000000000000000000000000000000000000000000000000000000000000000000000000000000000000000000000000000000000000000000000000000000000000000000000000000000000000000000000000000000000000000000000000000000000000000000000000000000000000000000000000000000000000000000000000000000000000000000000000000000000000000000000000000000000000000000000000000000000000000000000000000000000000000000000000000000000000000000000000000000000000000000000000000000000000000000000000000000000000000000000000000000000000000000000000000000000000000000000000000000000000000000000000000000000000000000000000000000000000000000000000000000000000000000000000000000000000000000000000000000000000000000000000000000000000000000000000000000000000000000000000000000000000000000000000000000000000000000000000000000000000000000000000000000000000000000053000000000000000000000000000000000000000000000000000000000000000000000000000000000000000000000000000000000000000000000000000000000000000000000000000000000000000000000000000000000000000000000000000000000000000000000000000000000000000000000000000000000000000000000000000000000000000000000000000000000000000000000000000000000000000000000000000000000000000000000000000000000000000000000000000000000000000000000000000000000000000000000000000000000000000000000000000000000000000000000000000000000000000000000000000000000000000000000000000000000000000000000000000000000000000000000000000000000000000000000000000000000000000000000000000000000000000000000000000000000000000000000000000000000000000000000000000000000000000000000000
#0663a1:140000540024000000000000
#066351:003400000000
#066320:000013000023000000000000
#0663a0:00000014
#066350:000000000000000000000034
#0673a0:542400000000
#066321:000000000000000000000013
#067321:002300000000
#068361:13
#0683b1:00230000
#068371:0013
#068321:00000023
#068321:000000000000000000000000000000000000000000000000000000000000000000000000000000000000000015000055
#068331:00000000000000000000000000000055
#069341:550000000055000000000000000000000000000000000000000000000000000000000000000000000000000000000000
#069331:005500000000000000000000000000000000000000000000
#069351:000000550000000025000000000000000000000000000000000000000000000000000000000000000000000000000000
#069361:0055000000000000
#0693b0:000013230000000000000000
#069320:000000000013230000000000
#0693b0:000000000000000013230000
#070320:140000540024000000000000
#070370:003400000000
#0703b1:000013000023000000000000
#070321:00000014
#070371:000000000000000000000034
#071321:542400000000
#0703b0:000000000000000000000013
#0713b0:002300000000
#072370:13
#072320:00230000
#073320:000000000013000026000000
#073360:000000000000000000000053535353530000000000000000
#073370:000000000000000000000000000000000000000000000053005300530053005300000000000000000000000000000000
#0733b1:000000000013000000000000
#073371:000000000000000000000000000000000000000000000000000000000000000000000000000000000000000000000000000000000000000000000000000000000000000000000000000000000000000000000000000000000000000000000000000000000000000000000000000000000000000000000000000000000000000000000000000000000000000000000000000000000000000000000000000000000000000000000000000000000000000000000000000000000000000000000000000000000000000000000000000000000000000000000000000000000000000000000000000000000000000000000000000000000000000000000000000000000000000000000000000000000000000000000000000000000000000000000000000000000000000000000000000000000000000000000000000000000000000000000000000000000000000000000000000000000000000000000000000000000000000000000000000000000000000000000000000000000000000000000000000000000000000000000000000000000000000000000000000000000000000000000000000000000000000000000000000000000000000000000000000000000000000000000000000000000000000000000000000000000000000000000000000000000000000000000000000000000000000000000000000000000000000000000000000000000000000000000000000000000000000000000000000000000000000000000000000000000000000000000000000000000000000000000000000000000000000000000000000000000000000000000000000000000000000000000000000000000000000000000000000000000000000000000000000000000000000000000000000000000000000000000000000000000000000000000000000000000000000000000000000000000000000000000000000000000000000000000000000000000000000000000000000000000000000000000000000000000000000000000000000000000000000000000000000000000000000000000000000000000000000000000000000000000000000000000000000000000000000000000000000000000000000000000000000000000000000000000000000000000000000000000000000000000000000000000000000000000000000000000000000000000000000000000000000000530000000000000000000000000000000000000000000000000000000000000000000000000000000000000000000000000000000000000000000000000000000000000000000000000000000000000053000000000000000000000000000000000000000000000000000000000000000000000000000000000000000000000000000000000000000000000000000000000000000000000000000000000000005300000000000000000000000000000000000000000000000000000000000000000000000000000000000000000000000000000000000000000000000000000000000000000000000000000000000000530000000000000000000000000000000000000000000000000000000000000000000000000000000000000000000000000000000000000000000000000000000000000000000000000000000000000053000000000000000000000000000000000000000000000000000000000000000000000000000000000000000000000000000000000000000000000000000000000000000000000000000000000000000000000000000000000000000000000000000000000000000000000000000000000000000000000000000000000000000000000000000000000000000000000000000000000000000000000000000000000000000000000000000000000000000000000000000000000000000000000000000000000000000000000000000000000000000000000000000000000000000000000000000000000000000000000000000000000000000000000000000000000000000000000000000000000000000000000000000000000000000000000000000000000000000000000000000000000000000000000000000000000000000000000000000000000000000000000000000000000000000000000000000000000000000000000000000000000000000000000000000000000000000000000000000000000000000000000000000000000000000000000000000000000000000000000000000000000000000000000000000000000000000000000000000000000000000000000000000000000000000000000000000000000000000000000000000000000000000000000000000000000000000000000000000000000000000000000000000000000000000000000000000000000000000000000000000000000000000000000000000000000000000000000000000000000000000000000000000000000000000000000000000000000000000000000000000000000000000000000000000000000000000000000000000000000000000000000000000000000000000000000000000000000000000000000000000000000000000000000000000000000000000000000000000000000000000000000000000000000000000000000000000000000000000000000000
#073361:000000000000000000000000000000000000000000000000000000000000000000000000000000000000000000000000000000000000000000000000000000000000000000000000000000000000000000000000000000000000000000000000000000000000000000000000000000000000000000000000000000000000000000000000000000000000000000000000000000000000000000000000000000000000000000000000000000000000000000000000000000000000000000000000000000000000000000000000000000000000000000000000000000000000000000000000000000000000000000000000000000000000000000000000000000000000000000000000000000000000000000000000000000000000000000000000000000000000000000000000000000000000000000000000000000000000000000000000000000000000000000000000000000000000000000000000000000000000000000000000000000000000000000000000000000000000000000000000000000000000000000000000000000000000000000000000000000000000000000000000000000000000000000000000000000000000000000000000000000000000000000000000000000000000000000000000000000000000000000000000000000000000000000000000000000000000000000000000000000000000000000000000000000000000000000000000000000000000000000000000000000000000000000000000000000000000000000000000000000000000000000000000000000000000000000000000000000000000000000000000000000000000000000000000000000000000000000000000000000000000000000000000000000000000000000000000000000000000000000000000000000000000000000000000000000000000000000000000000000000000000000000000000000000000000000000000000000000000000000000000000000000000000000000000000000000000000000000000000000000000000000000000000000000000000000000000000000000000000000000000000000000000000000000000000000000000000000000000000000000000000000000000000000000000000000000000000000000000000000000000000000000000000000000000000000000000000000000000000000000000000000000000000000000000000000000000000000000000000000000000000000000000000000000000000000000000005300000000000000000000000000000000000000000000000000000000000000000000000000000000000000000000000000000000000000000000000000000000000000000000000000000000000000530000000000000000000000000000000000000000000000000000000000000000000000000000000000000000000000000000000000000000000000000000000000000000000000000000000000000053000000000000000000000000000000000000000000000000000000000000000000000000000000000000000000000000000000000000000000000000000000000000000000000000000000000000005300000000000000000000000000000000000000000000000000000000000000000000000000000000000000000000000000000000000000000000000000000000000000000000000000000000000000530000000000000000000000000000000000000000000000000000000000000000000000000000000000000000000000000000000000000000000000000000000000000000000000000000000000000000000000000000000000000000000000000000000000000000000000000000000000000000000000000000000000000000000000000000000000000000000000000000000000000000000000000000000000000000000000000000000000000000000000000000000000000000000000000000000000000000000000000000000000000000000000000000000000000000000000000000000000000000000000000000000000000000000000000000000000000000000000000000000000000000000000000000000000000000000000000000000000000000000000000000000000000000000000000000000000000000000000000000000000000000000000000000000000000000000000000000000000000000000000000000000000000000000000000000000000000000000000000000000000000000000000000000000000000000000000000000000000000000000000000000000000000000000000000000000000000000000000000000000000000000000000000000000000000000000000000000000000000000000000000000000000000000000000000000000000000000000000000000000000000000000000000000000000000000000000000000000000000000000000000000000000000000000000000000000000000000000000000000000000000000000000000000000000000000000000000000000000000000000000000000000000000000000000000000000000000000000000000000000000000000000000000000000000000000000000000000000000000000000000000000000000000000000000000000000000000000
#073381:000026
#0743a1:140000000024000000000000
#074351:003400000000
#074320:001300000000
#074370:000000000023000000000000
#0743a0:00000014
#074350:000000000000000000000034
#0753a0:002400000000
#074321:000000000000000000000013
#075371:002300000000
#076371:13
#076321:00230000
#076361:0013
#0763b1:00000023
#0763a1:000000000000000000000014
#077361:002400000000
#077320:000013230000000000000000
#0773b0:000000000013230000000000
#077320:000000000000000013230000
#078320:140000000024000000000000
#078370:003400000000
#0783b1:001300000000
#078361:000000000023000000000000
#078321:00000014
#078371:000000000000000000000034
#079321:002400000000
#0783b0:000000000000000000000013
#079360:002300000000
#080360:13
#0803b0:00230000
#081350:000013230000000000000000
#081380:000000000014240000000000
#081330:000000000000000015250000
#081380:000000000000000000000016
#082380:26
#084320:000000000013230000000000
#084360:000000000000000013230000
#0843b0:000000000000000000000013
#0853b0:23
#085370:000013230000000000000000
#085321:00130000
#085371:0023
#086371:00001323
#0863b1:0000000000530000
#086371:000000000000000000000013
#0873b1:002300000000
#087320:13
#087360:002300000000
#087320:000000000000000000000013
#088320:33
#088370:00230000
#0883b0:000000000000000000000013
#0893b0:33
#089360:00230000
#092360:00001323
#092320:0000000000530000
#093360:13
#093320:002300000000
#093320:00130000
#093370:0023
#0943b0:000000000013230000000000
#094370:000000000000000013230000
#094320:000000000000000000000013
#095320:23
#095360:000013230000000000000000
#0953b0:000000000013230000000000
#095370:000000000000000013230000
#095320:000000000000000000000013
#096320:23
#0963b0:000000000000000000000013
#097360:00230000
#097320:000000000000000000000013
#098370:00230000
#0983b0:0013
#098360:00000033
#0993b0:330000000033330000230000
#099360:0000330000530000
#100320:13
#100360:005323000000000000000000
#1003a1:001400000000
#100361:000000540024000000000000
#100321:00000013
#100361:000000000000000000005323
#1003a0:000000000000000000000014
#101360:542400000000
#102370:13
#102320:00230000
#102360:0013
#1023b0:00000023
#102390:000000000000000000000000000000000000000000000000000000000000000000000000000000000000000015000055
#102380:00000000000000000000000000000055
#103370:550000000055000000000000000000000000000000000000000000000000000000000000000000000000000000000000
#103380:005500000000000000000000000000000000000000000000
#103360:000000550000000025000000000000000000000000000000000000000000000000000000000000000000000000000000
#103350:0055000000000000
#1043b0:13
#104370:005323000000000000000000
#104321:001400000000
#104361:000000540024000000000000
#1043b1:00000013
#104371:000000000000000000005323
#104320:000000000000000000000014
#105360:542400000000
#1063b0:13230000
#106360:0053000000000000
#1083a0:140000005424000000000000
#108350:003400000000
#108321:001300000000
#108371:000000005323000000000000
#1083a1:00000014
#108351:000000000000000000000034
#1093a1:005424000000000000000000
#108320:000000000000000000000013
#109370:005323000000000000000000
#110320:13
#110370:00230000
#1103b0:0013
#110360:00000023
#110320:000000000000000000000014
#111360:002400000000
#112320:140000005424000000000000
#112370:003400000000
#1123b1:001300000000
#112361:000000005323000000000000
#112321:00000014
#112371:000000000000000000000034
#113321:005424000000000000000000
#1123b0:000000000000000000000013
#113360:005323000000000000000000
#1143b0:13230000
#114360:0053000000000000
#114320:00001323
#114370:0000000000530000
#1153a0:000014240000000000000000
#115320:000000000014240000000000
#1153a0:000000000000000014240000
#115320:000000000000000000000014
#116320:24
#1163c0:00122200
#1163a0:000000000000000012000022
#117380:12220000
#117360:000000000012000032000000
#118360:22
#118320:00122200
#118360:000000000000000012000022
#119340:12220000
#119380:000000000012000022000000
#1203b0:13000000000000000000530000000000000000000000000000000000000000000000000000000000000000000000000000000000000000000000005300000000
#120390:000000000000000000000000000000000000000000000000000000000000005553000000000000000000000000000000330000000000000000000000000000000000000000000000000000000000530000000000000000000000000000000000000000000000000000000000000000000000000000000000000000000000000000530000000000000000000000000000330000000000000000000000000000000000000000000000000000000000005335000000000000000000000000000000
#120370:000000000000000000000000000000000000000000000000000000000000000000000000000000000000000000000000000000000000000000000000000000000000000000000000000000000000005553000000000000000000000000000000330000000000000000000000000000000000000000000000000000000000005335000000000000000000000000000000000000000000000000000000000000000000000000000000000000000000000000000000000000000000000000000000
#1213b0:23
#121321:130000000000000000000000000000000000000000000000000000000000005355000000000000000000000000000000000000000000000000000000000000000000000000000000000000000000000000000000000000000000000000000000000000000000000000000000000000000000000000000000000000000000000000000000000000000000000000000000000000000000000000000000000000000000000000000000000000000000000055530000000000000000000000000000
#121341:000000000000000000000000000000000000000000000000000000000000000000530000000000000000000000000000330000000000000000000000000000000000000000000000000000000000005335000000000000000000000000000000000000000000000000000000000000000000000000000000000000000000000035530000000000000000000000000000330000000000000000000000000000000000000000000000000000000000005300000000000000000000000000000000
#121361:000000000000000000000000000000000000000000000000000000000000000000000000000000000000000000000000000000000000000000000000000000000000000000000000000000000000000000530000000000000000000000000000000000000000000000000000000000000000000000000000000000000000005300000000000000000000000000000000000000000000000000000000000000000000000000000000000000000000000000000000000000000000000000000000
#122321:23
