This file was generated by Ched 2.7.0.0.
#TITLE ""
#ARTIST ""
#DESIGNER ""
#DIFFICULTY 0
#PLAYLEVEL
#SONGID ""
#WAVE ""
#WAVEOFFSET 0
#JACKET ""
#REQUEST "ticks_per_beat 480"
#00002: 4
#BPM01: 220
#00008: 01
#TIL00: ""
#VOLUME: ""
#HISPEED 00
#MEASUREHS 00
#0101a:14
#01014:0014
#01118:14
#01112:0014
#0121a:14
#01214:0014
#01318:14
#01518:14
#01512:0014
#0161a:14
#01614:0014
#0201a:1414
#02014:00140014
#02212:14
#02214:0014
#02218:00140000
#0221a:00000014
#02312:14
#0231a:00140000
#02314:0014
#02318:00000014
#02412:14
#02414:000000340034140000000000
#0251a:0014
#02512:0014
#0261a:14
#02614:00140000
#02618:0014
#02612:00000014
#03012:00140000
#0301a:0014
#03014:00000014
#04812:14
#04814:000000000000340000143400000000000000000000000000
#05014:0014
#05018:26000014
#0501f:21
#05114:14
#05112:00000016
#05110:41
#05214:0014
#05218:26000014
#05314:00000014
#0531a:0014
#05412:0014
#05418:00000014
#0551a:0014
#05514:00000014
#05712:00140000
#05718:0014
#05714:00000014
#06014:00000014
#06018:0014
#06012:14
#05918:00000014
#05914:1414
#0591a:00140000
#0611a:14
#06112:00140000
#06118:0024
#06114:00000024
#06412:0014
#06418:00000014
#06514:1414
#0651a:00140000
#06518:00000014
#06712:0014
#06716:00000014
#0681a:14
#06814:00140000
#06818:0014
#06812:00000014
#0691a:14
#06914:00140000
#06918:0014
#06912:00000014
#0711a:0014
#07112:00000014
#07218:14
#07214:00140000
#0721a:0014
#07216:00000014
#07312:14
#0731a:00140000
#07314:0014
#07318:00000014
#07512:0014
#07516:00000014
#0761a:14
#07614:00140000
#07618:0014
#07612:00000014
#0771a:14
#07714:00140000
#07718:0014
#07712:00000014
#0791a:0014
#07912:00000014
#08018:14
#08014:00140000
#0801a:0014
#08016:00000014
#08118:00140014
#08114:0014
#08112:14
#0841a:0014
#08412:26000014
#08410:41
#08518:14000026
#0861a:0014
#08614:00000014
#08612:26
#08712:0014
#08718:00000014
#0881a:0014
#08814:00000014
#08912:0014
#08918:00000014
#09118:00140000
#09114:0014
#0911a:00000014
#0921a:0014
#09214:00000014
#09212:24
#09418:00000014
#09414:0014
#0941a:14
#09314:00000014
#09318:1414
#09312:00140000
#09512:14
#0951a:00140000
#09514:0024
#09518:00000024
#0981a:0014
#09814:00000014
#09918:1414
#09912:00140000
#09914:00000014
#1011a:0014
#10116:00000014
#10212:14
#10218:00140000
#10214:0014
#1021a:00000014
#10318:00140000
#10314:0014
#1031a:00000014
#10312:14
#10512:0014
#1051a:00000014
#10614:14
#10618:00140000
#10612:0014
#10616:00000014
#1071a:14
#10712:00140000
#10718:0014
#10714:00000014
#1091a:0014
#10916:00000014
#11012:14
#11018:00140000
#11014:0014
#1101a:00000014
#11112:14
#11118:00140000
#11114:0014
#1111a:00000014
#11312:0014
#1131a:00000014
#11414:14
#11418:00140000
#11412:0014
#11416:00000014
#11612:0014
#1161a:24
#11718:14
#1171a:0014
#11714:00140000
#11812:14
#1181a:0014
#11914:14
#11918:00140000
#11912:0014
#1201a:14
#12012:0014
#12118:14
#12114:00140000
#1211a:0014
#12212:14
#12218:00140000
#12214:0014
#1221a:00000014
#12312:14
#1231a:00140000
#12314:0014
#12318:00000014
#12412:14
#04618:0014
#04612:14
#04712:14
#04714:0014
#04718:00000014
#0471a:00140000
#05812:0014
#05818:00000014
#0581a:24
#08214:14
#0271a:14
#02718:0014
#02712:00140000
#02714:00000014
#03718:0014
#03714:00000014
#03414:14
#03412:000000000014000000340000
#03410:41
#01818:00140014
#01812:2414
#01810:41
#02918:000000341434000000000000
#0291a:24
#03118:14
#03112:00140000
#0311a:0014
#03114:00000014
#03514:14
#03512:000000000014000000340000
#03614:14
#03612:000000000014000000340000
#03818:14
#0381a:000000000014000000340000
#0381f:11
#03918:14
#0391a:000000000014000000340000
#04018:14
#0401a:000000000014000000340000
#04114:0014
#04118:00000014
#04212:14
#04214:000000000014000000000000
#04414:14
#04412:000000000014000000000000
#04318:14
#0431a:000000000014000000000000
#0451a:14
#04518:000000000014000000000000
#0281a:14
#02812:00240000
#02818:0024
#02814:00000024
#01412:00240000
#0561a:243434003434
#0621a:24
#09012:243434003434
#09612:24
#09618:00003434
#1151a:24
#11514:00240024
#11518:0024
#08318:00260026
#08312:0026
#09714:00003434
#06610:41
#10010:41
#01452:00140000
#02452:54
#02454:0024
#04852:64
#04854:0000002400000000
#0585a:14
#06052:14
#0705a:000000000014000000000000
#07154:001400000000
#0945a:14
#09252:14
#1165a:14
#10058:000000000014000000000000
#10152:001400000000
#1055a:001400000000
#10454:000000000014000000000000
#11358:001400000000
#11252:000000000014000000000000
#1085a:000000000014000000000000
#10954:001400000000
#08452:16
#11852:14
#1205a:14
#08254:14
#03454:64
#03452:000000000024000000000000
#0295a:540000000000000000000014
#02958:002400
#03554:64
#03552:000000000024000000000000
#03654:64
#03652:000000000024000000000000
#03858:54
#0385a:000000000024000000000000
#03958:54
#0395a:000000000024000000000000
#04058:54
#0405a:000000000024000000000000
#04252:54
#04254:000000000024000000000000
#04454:64
#04452:000000000024000000000000
#04358:54
#0435a:000000000024000000000000
#0455a:64
#04558:000000000024000000000000
#00852:14
#0045a:14
#05058:16
#06652:000000000014000000000000
#06758:001400000000
#07452:000000000014000000000000
#07558:001400000000
#0785a:000000000014000000000000
#07954:001400000000
#002380:16
#0043a0:24
#006320:16
#008320:24
#013320:0014
#014320:00240000
#017380:14
#017390:00340000
#0173a0:0024
#019320:14342400
#0213a0:14342400
#024320:14
#024340:000000340034540000000000
#025320:24
#0293a0:140000000000000034000024
#029380:000000345434000000000000
#0323a0:14
#032380:0034
#0333a0:34
#033380:0024
#034340:14
#034320:000000000034000000340000
#035340:34
#035320:000000000034000000340000
#036340:34
#036320:000000000034000000340000
#037340:24
#038380:14
#0383a0:000000000034000000340000
#039380:34
#0393a0:000000000034000000340000
#040380:34
#0403a0:000000000034000000340000
#041380:24
#042320:14000024
#042340:000000000034000000000000
#043380:14000024
#0433a0:000000000034000000000000
#044340:14000024
#044320:000000000034000000000000
#0453a0:14000024
#045380:000000000034000000000000
#048320:14000024
#048340:000000000000340000543400000000000000000000000000
#051380:00142400
#053340:14240000
#0543a0:14240000
#055320:14240000
#0563a0:143434003434
#056380:0034
#0573a0:24
#062320:00140000
#062340:00003434
#063320:24
#0633a0:00140000
#063380:00003434
#0643a0:24
#066320:140034000024000000000000
#066380:000000000000000000140034
#067380:002400000000
#0703a0:140034000024000000000000
#070340:000000000000000000140034
#071340:002400000000
#074320:140034000024000000000000
#074380:000000000000000000140034
#075380:002400000000
#0783a0:140034000024000000000000
#078340:000000000000000000140034
#079340:002400000000
#085340:00142400
#087380:14240000
#088320:14
#088340:00240000
#0893a0:14
#089380:00240000
#090320:143434003434
#090340:0034
#091320:24
#096380:00143434
#0973a0:24
#097340:00143434
#098320:24
#1003a0:14
#100380:000034000024000000000000
#100340:00000014
#100320:000000000000000000000034
#101320:002400000000
#104320:14
#104340:000034000024000000000000
#104380:00000014
#1043a0:000000000000000000000034
#1053a0:002400000000
#108380:14
#1083a0:000034000024000000000000
#108320:00000014
#108340:000000000000000000000034
#109340:002400000000
#112340:14
#112320:000034000024000000000000
#1123a0:00000014
#112380:000000000000000000000034
#113380:002400000000
