This file was generated by Ched 2.6.4.0.
#TITLE ""
#ARTIST ""
#DESIGNER ""
#DIFFICULTY 0
#PLAYLEVEL
#SONGID ""
#WAVE ""
#WAVEOFFSET 0
#JACKET ""
#REQUEST "ticks_per_beat 480"
#00002: 4
#BPM01: 83
#00008: 01
#TIL00: ""
#HISPEED 00
#MEASUREHS 00
#03118:14
#03110:41
#01312:0014
#0131a:14
#00412:14
#00518:14
#00312:14
#0021a:14
#0011a:14
#00814:14
#00714:14
#00618:14
#0091a:1414
#00910:41
#01012:1414
#01118:1414
#01214:1414
#01612:0016
#01618:16
#01718:16
#01712:0016
#02012:0016
#02018:16
#02010:41
#02118:16
#02112:0016
#02218:16
#02514:14
#02510:41
#0261a:14
#02912:14
#03218:14
#03314:14
#03414:14
#03518:14
#03514:0014
#0351f:11
#03618:14
#03614:0014
#0371a:14
#03712:0014
#04018:1616
#04118:0016
#04112:16
#04212:16
#04218:0016
#04518:0016
#04512:16
#04612:16
#04618:0016
#01512:1616
#01912:1616
#04418:1616
#0381a:14
#02314:14
#02418:14
#02712:14
#0281a:14
#0141a:24
#01410:41
#01818:26
#03912:24
#0391f:21
#03910:0041
#04312:26
#05515:26
#0143a0:14
#014380:0026
#018380:16
#018360:0028
#029380:0014
#030380:24
#039320:1426
#043320:1628
#047320:14
#048320:24
#0493a0:14
#0503a0:24
#051340:14
#052340:24
#053380:14
#054380:24
