This file was generated by Ched 2.6.4.0.
#TITLE ""
#ARTIST ""
#DESIGNER ""
#DIFFICULTY 0
#PLAYLEVEL
#SONGID ""
#WAVE ""
#WAVEOFFSET 0
#JACKET ""
#REQUEST "ticks_per_beat 480"
#00002: 4
#BPM01: 83
#00008: 01
#TIL00: ""
#HISPEED 00
#MEASUREHS 00
#0351f:11
#03512:0000000000120000
#03516:000000000000000000000000120000000000000000000012
#0351c:00000012
#0381a:0012120000001200
#03818:0000001200000012
#03814:000000001200000000120000
#03816:000000000012000000000000000000000000000000000000
#03812:0000000000000012
#03414:0012120000000012
#03416:0000001200001200
#0341a:000000000000000012000000000000000000000000000012
#03418:000000000012000000000000000000000000000012000000
#0251b:0013000000000000
#02517:1300001300000000
#02512:00130000
#02510:41
#01212:000000000013000000000000000000000000130000000000
#01216:1313
#01217:00130013
#0121b:0013
#05112:000000001200000000000000000000000000000000120000
#05116:1200001200000000
#05114:000000000000000000000012000000000000000000000000
#0511a:000000000000000012000000000000000000000000000012
#05118:000000000000000000000012000000000000000012000000
#03212:0012000000000000
#03216:120000000000000000000012000000000000000000000000
#03214:000000000012
#0321a:00000012
#0321c:00120000
#0311c:0000000000120000
#03118:000000000000000000000000120000000000000000000012
#03112:00000012
#03110:41
#00512:0000001200000000
#00516:000000000000120000000000000000000000000000000012
#00518:0000001200000012
#0051c:00120000
#00514:000000000012
#0051a:12
#0011c:1200001200000000
#00118:000000000000120000000000000000000000000000000012
#00116:120000000000000000120000000000000000000012000000
#00112:00120000
#0011a:000000000012
#04412:0013000000002300
#04415:130000000000000000000023000000230000000000000023
#0441b:00132323
#04418:0000000000000023
#04318:000000250000000000000000000000130000000000000013
#0431b:0000001313000000
#04312:00260013
#04315:000000000000000000000013000000000000000000000000
#04314:24
#0401b:0013000000002300
#04018:130000000000000000000023000000230000000000000023
#04012:00132300
#04015:000000000000000000000000000000000023000000230000
#02915:0000000000130000
#0291b:00131300
#02912:0013000000000000
#02916:1300001300000000
#02716:1300000013000013
#02712:00130013
#02717:0000130000130000
#0271b:0013
#02714:0000001300000000
#02719:0013000000000000
#02617:0000000013000013
#0261b:00130013
#02616:0000130000130000
#02612:1313
#02619:0000001300000000
#02614:0013000000000000
#0231b:0000130000130000
#02318:1300001313000000
#02315:0013130000130000
#02312:1313
#02212:0000130000130000
#02215:1300001313000000
#02218:0013130000130000
#0221b:0013
#0191b:0013000000002300
#01918:130000000000000000000023000000230000000000000023
#01912:00132323
#01915:0000000000000023
#01815:000000000000000000000000000000130000000000000013
#01812:0000001313000000
#0181b:00000013
#01818:240000000000260000000013000000000000000000000000
#01813:0025000000000000
#01512:0013000000002300
#01515:130000000000000000000023000000230000000000000023
#0151b:00132300
#01518:000000000000000000000000000000000023000000230000
#00912:230000000000000000000000000000000013000000000000000000000000130000000000000000000000130000001300
#00915:00131300
#00917:230000000013
#00918:000000000000000000000013000013000000000000000000
#0091b:00130000
#00910:41
#0281b:0000130000000013
#02818:00000013
#02815:0000000000130000
#02817:1313
#02812:0013
#02819:0000001300000000
#02816:00130000
#02814:0013000000000000
#02412:0000130000000013
#02415:00000013
#02418:0000000000130000
#02416:1313
#0241b:1313
#02414:0000001300000000
#02417:00130000
#02419:0013000000000000
#05418:000000000012000000000000000000000012000000000000
#0541a:000012000000000000120000000000000000000000000000
#05414:0012000000000000
#05416:120000000000000000000012000000120000000000000000
#05218:000000000000000012000000000000000000000000000012
#0521a:000000000012000000000012000000000000000012000000
#05216:0012000000000012
#05212:0000001200000000
#0521c:001200000000000000000000
#05214:12120012
#05314:12
#0531c:000000000000000000000000000000000000000000000012
#0501a:000000000000000000000012000000000000000012000000
#05014:0000000012000012
#05018:000000000000000000000000000012000012000000000000
#05012:0000000000121200
#0501c:000000000000000012000000000000000000000000000012
#05016:0000001200000000
#04718:13
#04615:130000000000130000130000000000000013000000000000
#04618:000013000000000013000013000000130000000000000000
#0461b:000000000013000000000000000000000000000000000000
#04612:0013000000000000
#0421b:0013000000001300
#04218:130000000000130000130000000000000000000013000013
#04215:000013000000000013000000000000000000000000130000
#04212:000000000013000000000000000000000000130000000000
#0451b:000000000000000000000000130000000000000000000013
#04518:230000000000130000000000000000130000000013000000
#04515:000000000000000000000013000000000000000000130000
#04512:000000130000001300000000
#04112:000000000000000000000000130000000000000000000013
#04115:230000000000130000130000000000130000000013000000
#04118:000000000000000013000013000000000000000000130000
#0411b:000000130000001300000000
#03915:000000000000000000000000000000000000000000000013
#03914:0000000000160000
#03912:0012240016001600
#0391a:0000001400000000
#03916:12140000
#0391f:21
#0391c:22
#03918:0026
#03910:0041
#0361c:00120000
#0361a:000000000012
#03614:00000012
#03618:000000000000000000000012000000000000000000000000
#03616:000000000012000000000000000000000000000000000000
#03716:0000000000000012
#03718:000000000000000000000012000000000000000000000012
#0371c:120000000012
#0371a:0000000000120000
#03316:000000000000000000000012000000000000000000000012
#03318:000000000012
#03314:0000000000120000
#0331a:0000001200000000
#03312:12
#03014:000000000000000000000000000000000000000000000012
#03016:000000000012
#0301a:0000000000000012
#03018:00000012
#0111b:000000000000000000000000000000000000000000130013
#01114:00000013
#01112:00131300
#01117:13130000
#01016:000000130013000000000000000000000000000000000000
#0101b:001300131300130000000000
#01019:00000013
#01017:13
#05516:12
#04814:0000001200000012
#04816:00001212
#04818:000000000000000012000000000000120000000000000000
#0481a:000000000000000000000012000000000000000000000000
#02118:130000000000130000130000000000000013000000000000
#02115:000013000000000013000013000000130000000000000000
#02112:000000000013000000000000000000000000000000000000
#0211b:0013000000000000
#01712:0013000000001300
#01715:130000000000130000130000000000000000000013000013
#01718:000013000000000013000000000000000000000000130000
#0171b:000000000013000000000000000000000000130000000000
#02012:000000000000000000000000130000000000000000000013
#02015:230000000000130000000000000000130000000013000000
#02018:000000000000000000000013000000000000000000130000
#0201b:000000130000001300000000
#02010:41
#0161b:000000000000000000000000130000000000000000000013
#01618:230000000000130000130000000000130000000013000000
#01615:000000000000000013000013000000000000000000130000
#01612:000000130000001300000000
#0131c:0000000022000012
#01316:0000000000000012
#0131a:0000002200001200
#01314:00000012
#01312:0026000000000000
#01318:22220000
#01418:120000000000000000000000160000000000160000000013
#01416:0000140000160000
#01412:2200001426000000
#0141c:0012000000000000
#0141a:00240000
#01410:41
#00814:000012000000000000000000000000000000000000130000
#00819:0000000000000013
#0081b:00000013
#00816:0000001200001300
#0081a:001200
#00818:0012000000000000
#00618:0012000000000012
#0061a:12
#00616:00120012
#00614:0000001200120000
#00612:0012
#0071a:12
#00416:000000120000000000000000000000000000000000000012
#00418:000000000012000000000000000000000000000000120000
#00414:000000000012
#00412:00000012
#0041a:001200000000000000120000
#0041c:0000001200000000
#00216:0012000000000012
#00214:12
#00218:00120012
#0021a:0000001200120000
#0021c:0012
#00314:12
#04752:13
#04758:13
#03958:00006646
#03954:0000000000260000
#03952:00000036
#0225b:1363
#02252:0000000000230000
#02255:1363
#02258:0000000000230000
#01452:00005636
#01456:0000000000260000
#01458:00000046
#04558:13
#02055:13
#0255b:0023000000000000
#02557:53
#05152:002200000000
#05156:62
#03552:0000000000220000
#03556:0062
#03252:0022000000000000
#03256:62
#0315c:0000000000220000
#03158:0052
#00552:0000002200000000
#00556:00620000
#00558:0000002200000000
#0055c:00620000
#0015c:0000002200000000
#00158:00520000
#00156:0000002200000000
#00152:00520000
#04452:0023000000000000
#04455:63
#0445b:00130000
#04358:0000000000230000
#0435b:0063
#04352:00000013
#0405b:0023000000000000
#04058:53
#04052:00130000
#02955:0000000000630000
#0295b:0063
#02952:0023000000000000
#02956:63
#02756:0000000000000023
#02752:00000053
#02757:0000000000230000
#0275b:0063
#02657:0000000000000023
#0265b:00000063
#02656:0000000000230000
#02652:0053
#0235b:0000000000230000
#02358:0053
#02355:0000000000230000
#02352:0053
#0195b:0023000000000000
#01958:53
#01952:00130000
#01855:0000000000230000
#01852:0053
#0185b:00000013
#01552:0023000000000000
#01555:63
#0155b:00130000
#00952:000000000000000000000000000000000023000000000000000000000000000000000000000000000000000000000000
#00955:00630000
#04258:0000001300000000
#01755:0000001300000000
#001320:00122200
#001360:0000005200000000
#001381:00122200
#0013c1:0000005200000000
#003361:0000001200000000
#003321:0022
#0033c0:0000001200000000
#003380:0022
#003380:0000000000000012
#0043c0:22
#003321:0000000000000012
#004361:22
#004341:0000122200000000
#0053c1:00122200
#005381:0000005200000000
#005360:00122200
#005320:0000005200000000
#007380:0000001200000000
#0073c0:0022
#007321:0000001200000000
#007361:0022
#007361:0000000000000012
#008321:22
#0073c0:0000000000000012
#008380:22
#008360:000000122200000000000000
#009350:000000000000130000000023000000000000000000000000
#009320:000000000000000000000000000000000053000000000000000000000000000000000000000000000000000000000000
#010360:0000001323000000
#010340:0000000000132300
#010320:0000000000000013
#011320:23
#011370:0000001323000000
#011390:0000000000132300
#014320:12
#014360:0022000000000000
#0143a0:00140000
#014360:0000002400000000
#014320:00001626
#014360:0000000000560000
#015350:13230000
#015320:0053000000000000
#0153b0:0000000013230000
#015320:0000000000001323
#018380:1424000000000000
#018331:0015250000000000
#018380:0000162600000000
#018320:00001323
#018350:0000000000530000
#019380:13230000
#0193b0:0053000000000000
#019320:0000000013230000
#0193b0:0000000000001323
#0213b0:0000000013230000
#021320:0000000000001323
#0213b1:0000000000000013
#0223b1:23
#022351:00001323
#022321:0000000000530000
#0223b0:00001323
#022380:0000000000530000
#023380:00001323
#0233b0:0000000000530000
#023321:00001323
#023351:0000000000530000
#025371:13230000
#0253b1:0053000000000000
#025321:0000000013230000
#0253b0:0000000000132300
#025351:0000000000001323
#025380:0000000000000013
#026380:23
#026320:00001323
#026360:0000000000530000
#0263b1:00000013
#026371:0000000000000053
#0273b1:23
#0273b1:00001323
#027371:0000000000530000
#027320:00000013
#027360:0000000000000053
#028320:23
#029360:13230000
#029320:0053000000000000
#0293b0:0013
#030370:23
#029351:0000000000130000
#030321:23
#031381:1222000000000000
#031340:0012220000000000
#0313a1:0000122200000000
#031360:0000001222000000
#031381:00001222
#0313c1:0000000000520000
#032361:12220000
#032321:0052000000000000
#032381:0012
#0323c1:0000000000220000
#032360:0000000000122200
#0323c0:0000000000000012
#033380:22
#033360:00120000
#033320:0000002200000000
#033380:0012
#0333c0:0000000000220000
#0343c0:12
#034380:0022000000000000
#035360:1222000000000000
#0353a1:0012220000000000
#035340:0000122200000000
#035381:0000001222000000
#035360:00001222
#035320:0000000000520000
#036380:12
#0363c0:000000000022000000000000000000000000000000000000
#036360:0012
#036320:0000000000220000
#036381:0000000000122200
#036321:0000000000000012
#037361:22
#037361:0012
#037321:0000000000220000
#038321:12
#038361:0022000000000000
#0393c1:12
#039381:0022000000000000
#039321:00140000
#039361:0000002400000000
#039381:00001626
#039341:0000000000560000
#040381:13230000
#0403b1:0053000000000000
#040321:0000000013230000
#0403b1:0000000000001323
#043341:1424000000000000
#043380:0015250000000000
#043321:0000162600000000
#0433b1:00001323
#043381:0000000000530000
#044351:13230000
#044321:0053000000000000
#0443b1:0000000013230000
#044321:0000000000001323
#046321:0000000013230000
#0463b1:0000000000001323
#046320:0000000000000013
#047320:23
#051360:122200
#051320:005200000000
#052340:0000000012220000
#0523a1:0000000000122200
#053361:000000000000000000000000000000000000000000120022
#054321:00120000
#054361:0000002200000000
#054381:0012
#0543c1:0000000000220000
#054341:0000000000001222
#0543a0:0000000000000012
#0553a0:22
