This file was generated by Ched 2.6.4.0.
#TITLE ""
#ARTIST ""
#DESIGNER ""
#DIFFICULTY 0
#PLAYLEVEL
#SONGID ""
#WAVE ""
#WAVEOFFSET 0
#JACKET ""
#REQUEST "ticks_per_beat 480"
#00002: 4
#BPM01: 83
#00008: 01
#TIL00: ""
#HISPEED 00
#MEASUREHS 00
#00114:12
#00112:0000000000000012
#0011c:00120000
#0011a:12
#00318:12
#00214:0012000000000012
#0021a:00120012
#00216:0000001200120000
#0021c:0012
#00218:12
#00416:0012000000001200
#00418:0000000000000012
#0081b:00000013
#00818:0012000000000013
#01318:0022000000001200
#01316:0000220000000012
#01315:22
#01319:0000002200000000
#01317:0022
#02015:0000000013000013
#0201b:2313
#02018:0000000000130000
#02012:2300000000130000
#02010:41
#02118:13130000
#0211b:0013000000000000
#02115:0000001300000000
#02112:0013
#0171b:00000013
#01718:2600001300000013
#01712:00000013
#01715:00130000
#0181b:0000001300000000
#01812:00261300
#01818:000000250000000000000000000000000000000000000013
#01814:24
#02218:0013000000000000
#02212:00130000
#0221b:0000001300000000
#02215:0013
#02318:1313
#02315:0013000000000000
#0231b:00130000
#02312:0000001300000000
#04815:0000001200000012
#04817:00001212
#04819:0000000000120000
#05018:0000001200000012
#05014:0012
#05016:00000012
#0501a:0000000000120000
#05216:0012001200001200
#05214:1200000000000012
#05218:0000120000120000
#0521a:0012
#0321a:00000012
#0321c:0012
#03216:0000000000120000
#03214:0000000000000012
#03318:1200000000120000
#03316:0000000012000012
#03314:00120000
#0331a:0000001200000000
#03416:0012000000000000
#03414:0000001200000000
#03418:12000012
#0341a:00120000
#05318:12
#05316:0000000000000012
#0241b:1300000000000013
#02412:1300001313000000
#02418:0013000000001300
#02415:0000130000130000
#0251b:0000001300000000
#02515:13
#02510:41
#02612:13
#02615:0013001300000000
#02618:00131300
#0261b:1300000000130000
#0051a:12
#0051c:0000000000000012
#00512:00120000
#00514:12
#00716:12
#0061a:0012000000000012
#00614:00120012
#00618:0000001200120000
#00612:0012
#00616:12
#00915:230000000000000000000000000013000000000000000033
#00918:0000000000130000
#00912:000000000000000000000000000000000000000013330000
#00910:41
#01015:330033130000000000000000000000000000000000000000
#01012:000000000033330033130000000000000000000000000000
#0121b:1313
#01217:00130000
#01415:000000000000000000000000000000000000000000000013
#01418:0026
#01412:00240000
#0141a:22
#01410:41
#01518:130000000000000000000000000000000023330000000000
#01515:000000000000000000000023330000000000000000000000
#01915:1300000023000023
#01918:000000000000000000000023000000000000230000000000
#01612:2300130000000013
#0161b:0000000000130000
#01618:2313
#01615:0000001300000000
#0271b:13
#02718:0013001300000000
#02715:00131300
#02712:1300000000130000
#02812:1300000000000013
#0281b:1300001313000000
#02815:0013000000001300
#02818:0000130000130000
#02912:0000001300000000
#02918:13
#03016:00000012
#03118:12
#03114:0012000000000000
#0311a:00120000
#03116:0000001200000000
#03110:41
#03816:12000012
#03818:0012000000000012
#0381a:0000001200000000
#03814:00120000
#04518:0000000013000013
#04512:2313
#04515:0000000000130000
#0451b:2300000000130000
#04615:13130000
#04612:0013000000000000
#04618:0000001300000000
#0461b:0013
#04212:13000013
#04215:0000001300000013
#0421b:00000013
#04218:00130000
#04312:0000001300000000
#0431b:0013
#04315:000000000000000000000000000000000000000000000013
#04318:24260000
#04313:0025000000000000
#03918:000000000000000000000000000000000000000000000013
#03912:0026
#0391a:00240000
#03914:22
#0391f:21
#03910:0041
#04015:130000000000000000000000000000000023330000000000
#04018:000000000000000000000023330000000000000000000000
#04418:1300000023000023
#04415:000000000000000000000023000000000000230000000000
#0411b:2300130000000013
#04112:0000000000130000
#04115:2313
#04118:0000001300000000
#03614:00000012
#03612:0012
#03618:0000000000120000
#0361a:0000000000000012
#03716:1200000000120000
#03718:0000000012000012
#03516:12
#0351a:0012000000000000
#03514:00120000
#03518:0000001200000000
#0351f:11
#05118:0000000000000012
#05418:0012001200001200
#0541a:1200000000000012
#05416:0000120000120000
#05414:0012
#05516:12
#02255:1363
#0205b:13
#02052:13
#01852:0053
#01855:00000013
#0015c:00620000
#00552:00520000
#01055:0063000000000000
#01052:0000005300000000
#00952:000000000053
#0125b:6363
#01257:00530000
#01458:0066
#01452:00540000
#0145a:62
#01455:00000016
#01558:530000000000000000000000000000000053000000000000
#0155b:00130000
#01555:000000000000000000000063000000000000000000000000
#01955:63
#01952:00130000
#01758:0000001300000000
#02358:0053
#02555:63
#0265b:0000000000230000
#02658:0053
#02752:0000000000230000
#02755:0063
#02958:53
#0435b:0063
#04358:00000013
#04055:630000000000000000000000000000000063000000000000
#04058:000000000000000000000053000000000000000000000000
#04052:00130000
#04458:53
#0445b:00130000
#04255:0000001300000000
#04552:13
#0455b:13
#03952:0056
#0395a:00640000
#03954:52
#03955:00000016
#04758:13
#0013c0:00120000
#001380:0022
#003360:0000001222000000
#0033a0:0000000000000012
#0043a0:22
#004380:0000122200000000
#005320:00120000
#005360:0022
#007380:0000001222000000
#007340:0000000000000012
#008340:22
#008360:0000122200000000
#0093b0:00130000
#009380:0023
#009320:000000000000000000000000000000000000000013330000
#009350:000000000000000000000000000000000000000000000033
#010350:330033330000000000000000230000000000000000000000
#010320:000000000033330033330000000000000000000000000000
#010380:0000000000132300
#010320:0000000000000013
#011320:23
#0113b0:0000001323000000
#011350:0000000000130023
#011320:00000033
#0123b0:1333
#012370:00330023
#0143a0:12
#014380:0022000000000000
#014320:00140000
#014340:0000002400000000
#014380:0016
#014350:00000026
#015380:13
#0153b0:00230000
#015350:000000000000000000000013330000000000000000000000
#015320:0000000000230000
#015380:000000000000000000000000000000000013330000000000
#0153b0:0000000000000023
#018320:0013
#018350:00000023
#019350:13
#019320:00230000
#019350:0000000013230000
#021380:0000000000132300
#021350:0000000000000013
#022350:23
#022350:0013
#022320:00000023
#023380:0013
#0233b0:00000023
#025350:13
#025320:00230000
#025320:0013
#025350:0000000000230000
#0253b0:00000013
#025380:0000000000000023
#026380:00001323
#0263b0:0000000000530000
#027350:00001323
#027320:0000000000530000
#029380:13
#0293b0:00230000
#029380:0013
#030380:23
#029351:0000000000130000
#030351:23
#0313c1:00001222
#032361:12220000
#035321:00001222
#036381:12220000
#039341:12
#039361:0022000000000000
#0393a1:00140000
#039381:0000002400000000
#039321:0016
#039351:00000026
#040351:13
#040321:00230000
#040381:000000000000000000000013330000000000000000000000
#0403b1:0000000000230000
#040351:000000000000000000000000000000000013330000000000
#040321:0000000000000023
#0433b1:0013
#043381:00000023
#044381:13
#0443b1:00230000
#044381:0000000013230000
#046351:0000000000132300
#046381:0000000000000013
#047381:23
#051361:12
#051321:000000000000000032320022000000000000000000000000
