This file was generated by Ched 2.6.4.0.
#TITLE ""
#ARTIST ""
#DESIGNER ""
#DIFFICULTY 0
#PLAYLEVEL
#SONGID ""
#WAVE ""
#WAVEOFFSET 0
#JACKET ""
#REQUEST "ticks_per_beat 480"
#00002: 4
#BPM01: 83
#00008: 01
#TIL00: ""
#HISPEED 00
#MEASUREHS 00
#00117:1200121200000000
#00112:120000000000000000120000000000000000000012120012
#0011c:00120000
#0041c:121200000000000000000000
#00417:000000120012000000120000000000000000000000000012
#00419:00000012
#00415:000000000000000000000000000000000000120012120000
#00816:000000000000000000000014000014000014000014000014
#00812:0000000000130013
#0081b:00001313
#00817:000012120000000012120000000000000000000000000000
#0081a:00120000
#0081c:12
#00915:000000000000000000000013000013000000000000000000
#00912:230000000000130000000000000000130000000000130013
#00918:000000130013
#0091b:23130000
#00916:000000000000000000000000000000000013000000000000000000000000000000000000000000000000000000000000
#00910:41
#01015:130000001300000000000000000000000000000000000000000000000000000000000000000000000000000000130000
#01018:000000131300000000000000
#01014:0013
#01013:00000013
#0101b:000000130013000000130000000000000000000000000000
#0101a:0000000000130000
#01016:00000000000000000000001300000000
#01017:00000000000000130000000000000000
#01019:0000000000000013
#0141b:000000000000000000000000130000000000000000000013
#01412:00120012001400140000160000000000
#01416:00000000141414000000000000000000
#01417:22121200000000000000000000000000
#01418:0000000000130000
#01415:0016
#0141c:12
#0141a:00140000
#01410:41
#0151b:130000000000130000000023230000000000230000230000
#01516:130000000000000000000000230000000023230000000000
#01517:000000000000130000000000000000000000130000000000000000130000000000000000000000000000000000002300
#01512:00001300000013000000230000130000
#01616:000000000000130013000013000000000000130000000000
#0161b:000000130000130000131300
#01618:0000000000000013
#01619:0013000000000000
#01613:0000001300000000
#01617:230000000000001300000000
#01612:2300000000130000
#01615:000000000000000000000000000000000000000000000013
#01317:0022220022001212
#0131c:00000012
#01312:0000000000000012
#01315:22
#01319:0000002200000000
#01715:000013000013000000000000000000000000000000000000
#01712:000000130000000000000000000000000000000013130000
#0171b:000013130000
#01718:1300131300000000
#01716:00000013
#01717:000000000000000000000000000000130000000000000013
#0201b:0013130013001300
#02016:000000000000130000000013000000000000000000000000
#02012:280000000000000000000000000013000000130000130000
#02017:0000000000130000
#02015:000000000013
#02018:000000000000000000000000000000000000000000000013
#02010:41
#02118:000013000000000000130013000000130000000000000000
#0211b:130000001300000000130000
#02115:000000130000130000000000000000000013000000000000
#02112:000000000013000000000000130000000000000000130000
#02116:00000000000000000013000000000013
#02117:00000000000000000000000000130000
#02217:0013130000130000
#02212:000000000000130000000000000000130000000013130000
#02214:0000001300000000
#0221b:130000000000000013000013000000000000000000130000
#02216:0013
#02218:00000013
#02312:130000000000000013000013000000000000000000130000
#02316:0013130000130000
#0231b:000000000000130000000000000000130000000013130000
#02319:0000001300000000
#02317:0013
#02315:00000013
#01112:26130000
#01117:0000130013130000
#0111b:000000000000000000130000000000000000000000000013
#01116:0000000000000013
#0261b:130000000000130013000000000000130000000013130000
#02614:0013000000000000
#02616:0000130000130000
#02612:0000001313001300
#02617:000000000000000000000013000000000000130000130000
#0291b:000000130000000013000000000000130000000000000000
#02912:1300130013130000
#02914:0000000000000012
#0291a:0000000000000012
#02917:13
#02916:0013001300000000
#04816:000000000000000012000000000000120000000000000000
#0481a:0000001200000000
#04818:0012
#04814:00000012
#04812:0000000000000012
#05016:000000000000000012000000000000120000120000000000
#0501a:0000001200000000
#05018:0000000012000012
#05216:000000000000000012000000000000120000000000000000
#0521a:0000001200001200
#05218:0012
#0521c:0000000000000012
#05416:000000000000000012000000000000120000120000000000
#0541a:0000001200000000
#05418:0012
#05414:0000000000000012
#05512:12
#01816:000000180000000000000000000000000000000000001300130000000000130000000000000000000000000000000000
#0181b:0013
#01812:2400251a001c16000000000013000000
#01817:000000000000000000000000000000000000000000000013
#01818:00260000
#0181a:24
#00716:12
#00717:0000001200000012
#00712:0012
#00616:120012000000120012000000000000120012000000000000
#00612:000000120012000000000000000000000000000000000000
#0061a:000000000000000000120000000000000000120012000000
#0061c:000000000000000000000012120012000000000000000000
#00614:0000000000000012
#00512:120000000000000000120000000000000000000012120012
#00517:1200121200000000
#0051c:00120000
#00316:12
#00317:0000001200000012
#00312:0012
#00216:120012000000120012000000000000120012000000000000
#00212:000000120012000000000000000000000000000000000000
#0021a:000000000000000000120000000000000000120012000000
#0021c:000000000000000000000012120012000000000000000000
#00214:0000000000000012
#01212:000000000000000000000000000000000013000000000000000000000000000000000000130000000000000000000000
#0121b:000000000013000000000000000000000000000000000000
#01219:000000000000000000000013000000000000000000000000
#01217:000000000000000000000000000000000013000000000000
#01216:130000000000000000000000000000000000000000000000000000000013000000000000000000000000000000000000
#01218:000000000013000000000000000000000000000000000000000000000000000000000000000000000000000000000000
#01215:00130000
#01214:0013
#0191b:000000000000130000000023230000000000000000230000
#01912:1300000000232300
#01917:130000130000000000000000000000000000000000000023
#01916:0024
#01918:00000026
#01915:000000000023
#02412:000000130000130000000000000000000000000013130000
#0241b:130000000000000013130013000000000000130000000000
#02417:0000000000130000
#02416:0013
#0251b:13130000
#02517:0013001300000000
#02516:13
#02512:000000130000000013000000000000000000000000000000
#02510:41
#0271b:1300001313001300
#02719:0013000000000000
#02717:0000130000130000
#02712:000000000000130013000000000000130000000013130000
#02716:000000000000000000000013000000000000130000130000
#03912:120000000000140000000000130000000000000000000013
#0391c:00120012000000000000000000000000
#0391a:00000000001400140000000000000000
#03916:00000000141414000000000000000000
#03917:22121200000000000000000000000000
#03915:0000000016130000
#03918:0000000000160000
#0391f:21
#03910:0041
#04012:130000000000130000000023230000000000230000230000
#04017:130000000000000000000000230000000023230000000000
#04016:000000000000130000000000000000000000130000000000000000130000000000000000000000000000000000002300
#0401b:00001300000013000000230000130000
#04117:000000000000130013000013000000000000130000000000
#04115:0000000000000013
#04112:000000230000130000231300
#04114:0013000000000000
#0411a:0000001300000000
#04116:230000000000001300000000
#0411b:2300000000130000
#04118:000000000000000000000000000000000000000000000013
#04218:000013000013000000000000000000000000000000000000
#0421b:000000130000000000000000000000000000000013130000
#04212:000013130000
#04215:1300231300000000
#04216:000000000000000000000000000000130000000000000013
#04217:00000023
#04517:000000000000130000000013000000000000000000000000
#04512:0013230013002300
#0451b:000000000000000000000000000013000000130000130000
#04516:2800000000130000
#04518:000000000013
#04515:000000000000000000000000000000000000000000000013
#04615:000013000000000000130013000000130000000000000000
#04612:130000001300000000130000
#04618:000000130000230000000000000000000013000000000000
#0461b:000000000013000000000000130000000000000000130000
#04617:00000000000000000013000000000013
#04616:00000000000000000000000000130000
#04317:000000000000000000000013130000130000000000000000
#04312:24180000261c00001300000000000000
#0431b:00000013
#04316:000000000000000000000000000000000000000000000013
#04318:0000001600000000
#04314:0000001a000000000000000000000000
#0431a:24
#04319:0025000000000000
#04412:000000000000130000000023230000000000260000230000
#0441b:1300000000232300
#04416:130000130000000000000000240000000000000000000023
#04418:000000000023
#03817:0000000000001212
#03812:22000012
#0381c:1200000000000012
#03017:00000012
#03116:120000000000120000000000000000000012000000000000
#03114:0012001200000000
#0311c:0012
#03112:0000000000120000
#0311a:1200220000000012
#03118:00001222
#03110:41
#0321c:12
#03214:0012001200002200
#0321a:00121212
#03218:0000000000120000
#03216:1200220012000012
#03314:0012001212000012
#03312:0000000000120000
#03318:12
#0331a:00221222
#03316:00120012
#0331c:12
#0341c:1200000012120012
#03412:0012000000000000
#03418:000000000000000000000012000012000000000000000000
#03414:0000001200002200
#0341a:00120012
#03416:120000000000220000000000120000000012000000000000
#03614:0012000022002200
#0361a:12120012
#03619:0000000000000012
#03618:0000001200000000
#0361b:0000000000120000
#0361c:0012
#03616:22220000
#03712:0012001200000000
#03714:1200120000120012
#03716:00001212
#03718:22220000
#0371a:00002222
#03516:120000000000120000000000000000000012000000000000
#03514:0012001200000000
#0351c:0012
#03512:0000000000120000
#0351a:2200220000000012
#0351f:11
#03518:00002222
#0281b:000000130000130000000000000000000000000013130000
#02812:130000000000000013130013000000000000130000000000
#02816:0000000000130000
#02817:0013
#0155b:00136313
#01556:23001363
#01557:00000000000000000023000000000000
#01552:00005300000000000000000000230000
#0095b:00630000
#00956:000000000000000000000000000000000023000000000000000000000000000000000000000000000000000000000000
#0295b:0023000000630000
#02952:0000000000530000
#02954:0000000000000022
#0295a:0000000000000022
#02957:53
#01758:0000001300000000
#00157:0000622200000000
#00152:0000002200000000
#0015c:00620000
#00557:0000622200000000
#00552:0000002200000000
#0055c:00620000
#0105b:0000006343000000
#0105a:0000000000634300
#01056:00000000000000000000002300000000
#01057:00000000000000230000000000000000
#01059:0000000000000063
#01055:00000000000000000000000000000023
#01159:43
#01256:530000000000000000000000000000000000000000000000000000000023000000000000000000000000000000000000
#01258:000000000023000000000000000000000000000000000000000000000000000000000000000000000000000000000000
#01255:00630000
#01252:000000000000000000000000000000000023000000000000000000000000000000000000000000000000000000000000
#01254:0053
#0185b:0063
#01856:00280000000000000000230000000000
#01852:3400552a362c36000000000013000000
#01858:0000664600000000
#0185a:64
#01859:0045000000000000
#01652:1300000000130000
#0195b:00130000
#01952:53
#01957:0023000000000000
#01956:0014
#01958:00000016
#02252:3300000000230000
#0225b:4300000000000023
#02256:0063
#02258:00000053
#02652:00005353
#02657:0000000000000023
#02656:0000000000230000
#0275b:00006363
#02756:0000000000000023
#02757:0000000000230000
#04052:00135313
#04057:23001353
#04056:00000000000000000023000000000000
#0405b:00006300000000000000000000230000
#04255:0000001300000000
#04352:54283500562c36005300000000000000
#04357:0000000000230000
#0435b:00000013
#04358:0000464600000000
#04354:0000002a000000000000000000000000
#0435a:44
#04359:0065000000000000
#04452:00130016
#0445b:63
#04456:0023000014000000
#0415b:1300000000130000
#0475b:43
#02152:0000000053000053
#02156:00000000000000000023000000000023
#0215b:00000063
#02157:00000000000000000000000000230000
#0465b:0000000063000063
#04657:00000000000000000023000000000023
#04652:00000053
#04656:00000000000000000000000000230000
#02357:0053
#0235b:0000000000230000
#02355:00000063
#02352:0000000000000023
#02556:63
#02552:0023000000000000
#02052:18
#04556:18
#0385c:62
#0395c:00220022000000000000000000000000
#0395a:00000000002400240000000000000000
#03956:00000000542454000000000000000000
#03957:52225200000000000000000000000000
#03955:0000000056233600
#03958:0000000000260000
#03952:5232543453003300
#01452:00220022002400240000260000000000
#01456:00000000642464000000000000000000
#01457:62226200000000000000000000000000
#01458:0000000000230000
#01455:00006646
#0145c:6242000000000000
#0145a:0000644400000000
#0145b:00006343
#02452:00230000
#0245b:63000063
#02456:0023
#0285b:00230000
#02852:53000053
#02857:0023
#001370:00122200
#001320:0000005200000000
#0013c1:00122200
#001371:0000005200000000
#0033c1:0000001200000000
#003371:0022
#003321:0000000000000012
#004371:22
#004391:0000122200000000
#005371:00122200
#005321:0000005200000000
#0053c0:00122200
#005370:0000005200000000
#0073c0:0000001200000000
#007370:0022
#007320:0000000000000012
#008370:22
#0093b0:000000000000130000000023000000000000000000000000
#009360:000000000000000000000000000000000053000000000000000000000000000000000000000000000000000000000000
#0103b0:0000001323000000
#010370:00000000000000530000000000000000
#0103a0:0000000000132300
#010360:00000000000000000000005300000000
#010390:0000000000000013
#010350:00000000000000000000000000000053
#011390:23
#011360:0000001300000000
#011320:0023
#011320:0000000000130000
#011350:00000023
#011381:00000013
#0113b1:0000000000000023
#012361:13
#012381:000000000053000000000000000000000000000000000000000000000000000000000000000000000000000000000000
#012351:000000000023000000000000000000000000000000000000
#012351:00130000
#012321:000000000000000000000000000000000053000000000000000000000000000000000000000000000000000000000000
#012341:000000000000000000000023000000000000000000000000
#012341:0013
#012361:000000000000000000000000000000000000000000000000000000000053000000000000000000000000000000000000
#012321:000000000000000000000000000000000023000000000000
#014371:1232000000000000
#014321:00520052005400540000560000000000
#014361:0000343400000000
#014351:00003626
#0143c0:1222000000000000
#014370:00520000000000000000000000000000
#0143a0:0000142400000000
#014360:00000000005400000000000000000000
#0143b0:00001323
#014380:0000000000530000
#015360:13230000
#015320:0053000000000000
#0153b0:0000000013230000
#015370:00000000000000000053000000000000
#015360:0000000000001323
#015320:00000000000000000000000000530000
#017320:0000000013230000
#0173b0:0000000000001323
#0183a0:14
#018360:00580000000000000000000000000000
#018390:0025000000000000
#018321:0000155a260000000000000000000000
#018380:0000162600000000
#018320:00000000005c00000000000000000000
#0183b0:00001323
#018360:0000000000530000
#019320:13230000
#019370:0053000000000000
#0193b0:0013
#019370:0000000000230000
#021320:0000000013230000
#021360:00000000000000000053000000000000
#0213b0:0000000000001323
#021370:00000000000000000000000000530000
#021321:0000000000000013
#021361:00000000000000000000000000000053
#022321:23
#022361:0013
#022321:0000000000530000
#022351:00000023
#022380:00000013
#0223b0:0000000000000053
#023370:23
#023370:0013
#0233b0:0000000000530000
#023380:00000023
#023351:00000013
#023321:0000000000000053
#024361:23
#0243b0:13
#024370:0023000000000000
#024320:00130000
#024360:0000002300000000
#024360:0013
#024320:0000000000230000
#0243b0:00000013
#024370:0000000000000023
#025360:13230000
#025320:0053000000000000
#0253b0:0013
#025390:0000000000230000
#025361:0000000000130000
#025341:00000023
#025390:00000013
#025370:0000000000000023
#025341:0000000000000013
#026321:23
#026321:00001333
#026361:0000000000530000
#026371:0000000000000053
#027321:23
#0273b1:00001333
#027371:0000000000530000
#027361:0000000000000053
#0283b1:23
#028320:13
#028360:0023000000000000
#0283b0:00130000
#028370:0000002300000000
#028370:0013
#0283b0:0000000000230000
#028320:00000013
#028360:0000000000000023
#029370:13230000
#0293b0:0053000000000000
#0293b0:0000000013530000
#029340:0000000000000052
#030360:22
#029321:0000000000130000
#0293a1:0000000000000052
#030381:22
#0383c1:12
#038371:0000005222000000
#039371:1232000000000000
#0393c1:00520052000000000000000000000000
#039361:0000343400000000
#0393a1:00000000005400540000000000000000
#039351:00003626
#039381:0000000000560000
#039320:1222000000000000
#039370:00520000000000000000000000000000
#039320:0000142400000000
#039360:00000000005400000000000000000000
#039320:00001323
#039350:0000000000530000
#040370:13230000
#0403b0:0053000000000000
#040320:0000000013230000
#040360:00000000000000000053000000000000
#040370:0000000000001323
#0403b0:00000000000000000000000000530000
#0423b0:0000000013230000
#042320:0000000000001323
#043320:14582500000000000000000000000000
#043391:0015000000000000
#043341:0000005a000000000000000000000000
#043381:00260000
#043320:00000000165c26000000000000000000
#043320:00001323
#043370:0000000000530000
#0443b0:13230000
#044360:0053000000000000
#044320:0013
#044360:0000000000230000
#0463b0:0000000013230000
#046370:00000000000000000053000000000000
#046320:0000000000001323
#046360:00000000000000000000000000530000
#0463b1:0000000000000013
#046371:00000000000000000000000000000053
#0473b1:23
#047340:1200002200000000
#047340:0000000012000022
#048340:12220000
#049340:1200002200000000
#049340:0000000012000022
#050340:12220000
#051360:1200002200000000
#051340:0000000012000022
#052340:12220000
#053380:1200002200000000
#053340:0000000012000022
#054360:12220000
