This file was generated by Ched 2.6.4.0.
#TITLE ""
#ARTIST ""
#DESIGNER ""
#DIFFICULTY 0
#PLAYLEVEL
#SONGID ""
#WAVE ""
#WAVEOFFSET 0
#JACKET ""
#REQUEST "ticks_per_beat 480"
#00002: 4
#BPM01: 83
#00008: 01
#TIL00: ""
#HISPEED 00
#MEASUREHS 00
#0211a:14
#02112:0014
#00218:14
#00214:00140000
#0021a:0014
#00212:00000014
#0031a:14
#00312:0014
#00114:00000014
#0011a:14
#00118:00140000
#00418:14000014
#00414:00140000
#00614:14
#00618:00140000
#00612:0014
#0061a:00000014
#00712:14
#0071a:0014
#00518:00000014
#00512:14
#00514:00140000
#00814:14000014
#00818:00140000
#00914:0014
#0091a:00000014
#00910:41
#01012:14
#01016:00140014
#0101a:0014
#01112:1414
#0111a:00140000
#01116:00000014
#0131a:14000014
#01316:00140000
#01312:0014
#01618:00000014
#0161a:24
#0201a:0014
#02014:00000014
#02012:24
#02010:41
#0221a:14140000
#02212:14
#02214:0014
#0231a:14
#02312:00140000
#02318:0014
#02412:14
#0241a:00140000
#02414:0014
#02418:00000014
#02514:14
#02518:0026
#02510:41
#02812:00140000
#02818:0014
#02814:00000014
#0281a:14
#02918:14
#03018:00000014
#03114:14
#03118:00140000
#03110:41
#03212:0014
#03216:00000014
#0331a:14
#03314:00140000
#03318:0014
#03312:00000014
#03414:00000014
#03518:14
#03514:00140000
#0351f:11
#0361a:0014
#03616:00000014
#03712:1414
#03718:00140000
#0371a:0014
#04612:14
#0461a:0014
#03812:00000014
#04114:00000014
#04112:24
#04216:00000014
#04512:0014
#04518:00000014
#0451a:24
#04712:1414
#0471a:14
#04812:1414
#04816:00000014
#0501a:1414
#05016:00000014
#05112:14
#05114:0014
#0491a:1414
#05216:14
#05218:0014
#05212:00140000
#05214:00000014
#0531a:14
#05318:0014
#05416:14
#05414:0014
#0541a:00140000
#05418:00000014
#05512:14
#0441a:14
#04418:0014000000000000
#04412:0024
#04416:00000024
#04012:14
#04014:0014000000000000
#0401a:0024
#04016:00000024
#04312:2414
#0431a:2414
#01912:14
#01914:0014000000000000
#0191a:0024
#01916:00000024
#0151a:14
#01518:0014000000000000
#01512:0024
#01516:00000024
#0181a:2414
#01812:2414
#01716:00000014
#02612:14
#02616:00140000
#0261a:1414
#0271a:14
#02716:00140000
#02712:1414
#01412:2428
#01418:00260000
#01410:41
#0391a:24
#03912:00260000
#03916:0028
#0391f:21
#03910:0041
#0215a:64
#02152:0054
#00958:00140000
#01452:00000018
#02052:14
#02254:0064
#02358:0054
#02554:64
#02958:54
#04652:54
#0465a:0064
#0455a:14
#03956:00000018
#04458:0024000000000000
#0445a:64
#04052:54
#04054:0024000000000000
#04352:0054
#0435a:0064
#01952:54
#01954:0024000000000000
#0155a:64
#01558:0024000000000000
#0185a:0064
#01852:0054
#0015a:64
#00158:00540000
#00552:54
#00554:00640000
#0265a:0064
#02752:0054
#0013a0:1424
#001380:00340000
#005320:1424
#005340:00340000
#009380:14240000
#0123a0:14
#012380:00240000
#012320:0014
#012340:00000024
#014320:00001828
#0153a0:14240000
#015380:0054000000000000
#016340:00140000
#016320:0024
#017340:14
#017320:0000342400000000
#0183a0:14
#018390:0035000000000000
#018380:00260000
#018321:1435260000000000
#0183a1:0014
#018381:00000024
#018320:0014
#018340:00000024
#019320:14240000
#019340:0054000000000000
#0213a0:14
#021380:00240000
#021320:0014
#021340:00000024
#022340:0014
#022320:00000024
#023380:0014
#0233a0:00000024
#025340:14
#025320:00240000
#0263a0:0014
#026380:00000024
#027320:0014
#027340:00000024
#029380:14
#0293a0:00240000
#029340:0000000014340000
#030340:24
#031320:00001424
#0323a0:14240000
#034380:1400342400000000
#0353a0:00001424
#036320:14240000
#038380:1400342400000000
#039360:00001828
#040320:14240000
#040340:0054000000000000
#041380:00140000
#0413a0:0024
#042380:14
#0423a0:0000342400000000
#043320:1435260000000000
#0433a1:14
#043391:0035000000000000
#043381:00260000
#043321:0014
#043341:00000024
#0433a0:0014
#043380:00000024
#0443a0:14240000
#044380:0054000000000000
#046320:14
#046340:00240000
#0463a0:0014
#046380:00000024
