This file was generated by Ched 2.7.0.0.
#TITLE ""
#ARTIST ""
#DESIGNER "hard"
#DIFFICULTY 0
#PLAYLEVEL
#SONGID ""
#WAVE ""
#WAVEOFFSET 0
#JACKET ""
#REQUEST "ticks_per_beat 480"
#00002: 4
#BPM01: 90
#00008: 01
#TIL00: ""
#VOLUME: ""
#HISPEED 00
#MEASUREHS 00
#0011a:14
#0021a:14
#00312:14
#00412:14
#00518:14
#00510:41
#00618:14
#00714:14
#00814:14
#01312:14
#0131a:0014
#01310:41
#01712:14
#01812:14
#03118:14
#0491a:14
#05012:14
#05118:14
#01414:14
#01418:0014
#01512:14
#0151a:0014
#01614:14
#01618:0014
#0191a:14
#01910:41
#0201a:14
#02114:14
#02214:14
#02318:14
#02418:14
#03014:14
#03214:14
#03318:2616
#0331f:21
#03412:1616
#03410:41
#03518:16
#03512:0016
#03712:2616
#03818:1616
#03912:16
#03918:0016
#04212:0016
#04218:16
#04318:16
#04312:0016
#04112:0016
#04118:26
#04618:0016
#04612:16
#04712:16
#04718:0016
#04518:0016
#04512:26
#04510:41
#0271f:11
#02510:41
#0093a0:14
#0103a0:24
#011340:1424
#012380:1424
#025340:14
#025330:0034
#026320:34
#026330:0034
#027340:24
#028380:14
#029380:24
#036380:1626
#040320:1626
#044380:1626
#048320:1626
#052340:1400000034000024
