This file was generated by Ched 2.7.0.0.
#TITLE ""
#ARTIST ""
#DESIGNER ""
#DIFFICULTY 0
#PLAYLEVEL
#SONGID ""
#WAVE ""
#WAVEOFFSET 0
#JACKET ""
#REQUEST "ticks_per_beat 480"
#00002: 4
#BPM01: 90
#00008: 01
#TIL00: ""
#VOLUME: ""
#HISPEED 00
#MEASUREHS 00
#0271f:11
#0271b:000000130000130000000013000000130000000000130000
#02716:000000130013000000000000130000130000000000000000
#02717:0000001300001300
#02712:130000000000000000130000000000000013000000130000
#02715:000000000000000000000000000000000000000000000013
#03215:0000000000130013
#03218:000000000000001300001300
#0321b:000000000013000000000013000000000000130000000000
#03212:000013000000000013000000000000000013000000000000
#03216:2424242424000000
#0311b:130000000000130000000000130000000000000000000013
#03116:0000242424001300
#03117:0013000000130013
#03112:1313001300240024
#0311a:00000024
#00714:000000000000000000000000000000000012000000000000
#0071a:000000000000000000000000000000000012000000000000
#00716:000000000000000000000000000000000000000000000012
#00712:12
#0071b:000000120012000000000000000000000000000000120000
#00715:000000121200000000001200
#00717:0000000000120000
#00713:000000000000121200000000
#00719:000000000000000000120012000000000000000000000000
#0081a:1400000000000012
#00812:000000000000000000120000000000120000000000000012
#00814:0000000000000012
#00816:00001212
#0081c:00001212
#00818:0000001200120000
#02012:0012001200140000
#0201a:00001414
#02015:000000000013
#02016:000000000000120000000012000000000000000000000000
#02018:000000120000000000120000000000000000000000000013
#0201b:0000000000000013
#0201c:12120000
#04817:000000130000000000000013000000000000000000000000
#04816:000000000000000000001300000000000000130000000000000000000014000000000000000000000000000000000000
#04812:240000130000000000000024000000000000000000000000
#04818:000000000000000000000000000000000000000000130013
#04815:000000000000000000001313
#0481a:0000242400002400
#04717:000000000013000000000000000000000000000000000013
#04716:240000000000000013000014000014000000000000130000
#0471b:0000000000000013
#0471a:000000140000000000140000000024000000140000000000
#04712:000000140000140000000024000000000000130000000000
#0461a:00140000
#04612:140000000000000013000000240014000000000000000013
#04617:000000000000000000000013000000000000000000000000
#04616:000000140013000000140000000024000000000000140000
#0461b:001300000000000000001300
#04512:240000140000002400140000
#0451a:000000140000140000140024000014000000000000000000
#04516:000000130000000000000014000000000000000000130000
#04517:000000000000000000000000000000000000000000000013
#0451b:000000000013
#04510:41
#05218:000000000000000000001313
#05216:000000000000000000000013000013000000000000000000
#05217:000000130000000013000000000000000013000000000000
#05214:000000000000000000130000000000001300000000000000
#05219:000000000000000000001300000000130000000000000000
#0521b:13130000
#05212:001300000000000000000000
#05215:000000000000000000000000000000000000000000230023
#04016:000000000000000000000013000000000000000000000000
#0401b:000000000000000000130013000000000000000000000013
#0401b:000000000000000000000013000000000000000000000000
#04012:000013000013000000000000000000000000000000130000
#04017:000000000013000000000000000000000000000013000000
#0391b:000000000000000000130000000013000000000000130013
#03912:000000130013000000000013000000000000130000000000
#03916:130000000000000013000000000000000000000000130013
#03917:000000130000130000000013000000000000000000000000
#00414:000000000000000000121200
#00417:00000000000000000000001200000000
#00418:000000000000000000120000120000120000000000120012
#00419:00000000000000000012000000000000
#00416:000000120000000000000012000000000000000000000000
#0041a:000000000012000000000000000000000000000000000000
#0221b:001300000000000000131300
#0221a:000000000013000000000000000000000000000000000000
#02219:001300
#02218:130000000000000000000013000000000000000000000000
#02213:0000001300000000
#02214:00130000
#02215:0013000000000000
#02212:000000000000000000000000000000000000000000000013
#02216:000000000013
#0121b:000000000000000000000013000000130000000000000013
#01212:000000000000000000130000000000000013000000130000
#01217:1300001300001313
#01216:0000130013130000
#01214:0013000000000000
#03012:1313131313131313
#03017:1300000013000013
#03019:0013000000001300
#0301b:0000131300130000
#0291b:1313131313131313
#02916:2300000013000013
#02914:0013000000001300
#02912:0000131300130000
#02112:230000000000000000130000000000000013000000000000
#02115:000000130013000000000000000000000000000000130000
#0211b:000000130000000000001300
#02118:000013000000000000130000000000000000130000000000
#02612:001300000000000000000000000000230013000000130000
#02618:231300000000000013000000
#0261b:000013000000231300230000
#02615:000000130013000000000000001300000000000000000000
#02617:000000000000000000000000000000000000000000130013
#0051c:00000000000000000012000000000000
#00516:120000001200000000000000000000000000000000000000000000120000000000000000000000000000120000001200
#00514:00120000
#0051a:000000120012000000000000000000000000000012000000
#00512:0000001200000000
#00518:0000001200000000
#00510:41
#00614:000000120012000000000000000000000000120000000000
#0061a:00000012
#00618:120012000000000000000012000000120000000000000000
#00616:0000001200000000
#00617:000000000000000000000000000000000000000000120012
#00612:000000000012
#0151b:000000000013000000000000000013000000130000000000
#01517:000000000000000000000013000000000000000000000000
#01514:000000000000000000130000000000000000000013000000
#01519:000000000000000013000000000000000000000000130000
#01516:000000000000130000000000000000000013000000000000
#01512:000013000000000000000000000000000000000000000013
#01416:000000000000000000000000000000000000000000000013
#0141b:000000000000000000000013000013000000000000000000
#01414:000000000000000000130000000000000000000013000000
#01419:000000000000000013000000000000000000000000130000
#01412:000013000000130000000000000000000013000000000000
#01417:000000000013000000000000000000000000130000000000
#01312:000000000000000000130000000000000000000000000000000000001300000000000000000000000000000000001300
#01316:230000000000000000000000130000000013000000000000
#01319:0000000000000013
#01314:000000000013
#0131b:00001313
#01317:000000001300000000000000000000130000000000000000
#01310:41
#05015:000000000000000000000000000000000000000013000013
#05017:000000000000130000000000000000000013000000000000
#05012:13130013
#05018:0000000000000013
#05014:0000000000130000
#05016:0013001313000000
#05019:000000000000001300000000
#0501b:000013000000000000000013000000000000000000000000
#05112:000000130000001300130000
#05117:0000000000130000
#0511b:2300131300001313
#05116:000000000000000000000000000000000000000000000013
#05119:0013
#05114:000000000000000000000013000000000000000000000000
#05115:0013000000000000
#05118:001300000000000000000000
#0491b:000000130000001300130000
#04916:0000000000130000
#04912:2300131300001313
#04917:000000000000000000000000000000000000000000000013
#04914:0013
#04919:000000000000000000000013000000000000000000000000
#04918:0013000000000000
#04915:001300000000000000000000
#0381b:130000130000000013000000000000000013000000000013
#03812:000000000000000000000013000013000000000000130000
#03817:000000000000130000000013000000000000000013000000
#03816:0013001300000000
#04316:240000000000140000000024000024000000000000140000
#04312:000000130000000013000014000000000000130000130000
#0431a:000000000000001400000000
#0431b:0013131300000000
#03717:230000000000000013000000000000000000000000130000
#03712:000000000000000000130000000013000000000013000000
#0371b:000000130013000000000013000000000000130000000000
#03716:000000130000130000000013000000000000000000000013
#0341b:000000130000000000130013000000000013000000000013
#03417:130000000013000000000000000000000000000013000000
#03412:000000000000130000000000000013000000000000130000
#03416:000000130000000000000013000000000000000000000000
#03410:41
#0421b:000000000000000013000000000000000013000000000013
#04216:000000130000000000130014000014000000000000140000
#04212:140000000000140000000014000000000000000013000000
#04217:00130000
#0421a:0014000000000000
#0411a:000000000000000000000014000000000000000000000000
#04112:000000130013000013000000000014000000000000000000
#0411b:000000130000000013000000000000000000130013000000
#04116:240000000000140000000024000024000000000000130000
#04117:000000000000000000000000000000000000000000000013
#03612:000000000000000000130013000000000000000000000013
#03617:0013
#03616:000000000013000000000000000000000000000013000000
#0361b:000013000013000000000000000000000000000000130000
#03516:13130013
#03516:00000013
#03517:000000130000000000000013000013000000000000130013
#03512:000000000000000000130013000000000000000000130013
#03317:130000000013000000000000000000000000130000000000
#03316:000000130000000000000013000013000000000000130000
#03312:230000000000000000000000000000000000000000000013
#0331b:000000000000000013000013000000000000000013000000
#0331f:21
#01918:000000000000120000000000120000000012000000000000
#01916:0012000000120000
#01912:000000000000000000000012000000000012000000000000
#01919:0000001200000012
#01915:000000000000000012000000000000000000000012000012
#0191a:121200000000000000000000
#01910:41
#01816:000000120012000000120012000000000000000000000000
#0181b:000012120000
#01818:000012001200120000000000000000000000000000120000
#01813:12
#01814:000000000000000000000000000000000000000012000012
#0161b:000013000000000000000000000000130000130000000013
#01612:000000000000130013000013000000000000000000130000
#01617:130000131300130000001300
#01616:000000130000000000000000000000130013000000000000
#01717:1200001200000000
#01718:000000120000000000000000000000000000000000120012
#01713:000000000012
#01716:00120000
#01714:001200000000000000000000
#01719:0012
#01715:000000000000000000000012000000000000000000000000
#00218:000000000000000000120012000000000000000000120000
#00213:120012120000
#00216:000000120012000000000000000000000000000000000000
#0021b:001200120000000000000000
#00214:000000000000000000000000000000000000000000000012
#00212:000000000012
#00116:000000000000000000120012000000000000000000000000
#0011b:120012120000
#00118:000000120012000000000000000000000000000000120012
#00113:001200120000000000001200
#0441b:000000000000230000230000000000130000000013000000
#04416:240000000000240000000000000000002300000000000000000000000013000000000000000000000000130000000000
#04417:000000000000000000000000230000000000000000000013
#04412:000000000000230000000023000000000000000000000000
#01112:000000000000000000130000000000000000000000000013
#0111b:000000000000000000000013000000000000000000130000
#01116:0000130013000013
#01117:1300001300001300
#01119:0000000000130000
#01114:0013000000000000
#01012:000000000000000000000000000000000000000000000013
#0101b:0013000013000013
#01017:0000001300001300
#01019:0000130000130000
#01016:1300000000000013
#00912:0013000013000013
#0091b:000000000000000000000000000000000000000000000013
#00916:0000001300001300
#00914:0000130000130000
#00917:1300000000000013
#02816:0000001300000000
#02812:0013000013000013
#02817:0000000013000013
#02819:00000013
#02814:00000013
#0281b:000013000000000013130000000000000000000000000000
#02818:13
#02515:001300000000000000000000000000000000000000130000
#0251b:230000000013
#0251a:000013000000000000000000000000000013000000000000
#02519:000000001300000000000000000000130000000000000000
#02514:000000130000000000000000000000001300000000000000
#02513:000000000013000000000000000013000000000000000000
#02518:000000000000000000130000001300000000000000000000
#02512:000013230000
#02510:41
#0241b:130000001300000000000000000000000000130000000000000000000013000000000000000000000000000000000000
#02416:000000000000130000000000000000001300000000000000000000000013000000000000000000000000000000000000
#02417:000000000000130000000013000000000000000000000000
#02412:000000000000000000000013000000000000000000000000
#02312:000013000000000000130000000000000000000000000013
#02318:0000000000000013
#02315:000000000013
#02317:130000000000000000000000000013000013000000000000
#0231b:0013130013000000
#02316:000000000013000000000000000000000000000000000000
#00314:000000000000000000120000000000000000000000000012
#00316:000012000000120000000000000000000000000000120000
#0031a:1200001200000000
#0031c:0000000000000012
#00318:000000000000000000000012000000120000120000000000
#00312:00000012
#00016:000000000000000000000000000000000000000000120012
#0001b:000000000012
#00856:00000014000000000000000000000000
#0085a:54
#04656:000000000000000000000000000054000014000000000000
#0465a:000000000000000000000000000000000014000000000000
#04652:000000000000005400000000
#03956:130000000000001300000000
#0395b:000000000000000000000000000053000000000000000053
#03952:000000000000000000000063000000000000000000000000
#0385b:130000000000001300000000
#03852:000000000000006300000000
#03857:000000000000000000000063000000000000000000000000
#03856:0053000000000000
#0425a:000000140000000000000000000014000000000000000000
#04256:000000000000000000000054000064000000000000000000
#04252:14
#03757:130000000000001300000000
#03752:000000000000006300000000
#0375b:000000000000000000000053000000000000000000000000
#03457:130000000000001300000000
#03452:000000630000005300000000
#0345b:000000000000000000000063000000000000000000000000
#02457:000000000000000000000053000000000000330000000000
#02452:000000000000000000000053000000000000330000000000
#0245b:000000000000000000000000000000000000000000000000000000000023000000000000000000000000000000000000
#02456:000000000000530000000000000000000000000000000000000000000023000000000000000000000000000000000000
#03256:0014
#04356:140000000000000000000014000014000000000000540000
#04352:000000000000000000000054000000000000000000000000
#0435a:000000000000006400000000
#04852:140000000000000000000054000000000000000000000000
#0485a:00140000
#04856:000000000000000000000000000000000000000000000000000000000024000000000000000000000000000000000000
#04552:140000540000001400000000
#0455a:000000000000000000000014000064000000000000000000
#04556:000000000000000000000064000000000000000000000000
#04156:140000000000000000000014000014000000000000000000
#0415a:000000000000000000000064000000000000000000000000
#04152:000000000000005400000000
#04456:640000000000000000000000000000000000000000000000000000000023000000000000000000000000000000000000
#04457:0053
#04452:000000000000000000000053000000000000000000000000
#0445b:0000000000230000
#0265b:00000013
#04752:000000000000000000000014000000000000000000000000
#0475a:000000000000001400000000
#04756:140000000000000000000064000000000000000000000000
#03352:13
#03357:63
#03356:000000000000005300000000
#0335b:000000000000000013000053000000000000000000000000
#01356:53
#01357:002300000000
#01352:00000023000000000000000000000000
#04056:000000000000000000000053000000000000000000000000
#0405b:000000000000000000000053000000000000000000000000
#0405b:000000000000000000000053000000000000000000000000
#04052:000000000063000000000000000000000000000000000000
#0125b:000000000000000000000000000000000000000000000063
#01257:63000013
#01256:0013
#00457:00000000000000000000002200000000
#00458:0000000052520000
#00459:00000000000000000022000000000000
#03052:13131313
#0295b:13131313
#02152:0000001300000000
#02155:0000000000000063
#02158:0000001300000000
#0055c:00000000000000000022000000000000
#00556:00000000000000000022000000000000
#00552:0000006200000000
#00558:0000006200000000
#0155b:000000000000001300000000
#01552:001300000000000000000000
#0525b:00130000
#05152:00630063
#0515b:00130013
#0495b:00530053
#04952:00130013
#05057:00630000
#05052:00130013
#03556:53
#03557:000000000000006300000000
#03552:000000000000000000000063000000000000000000000063
#0315b:13
#01958:0062
#01956:0052000000000000
#01657:0013
#01656:0013000000000000
#01756:00620000
#01758:0052000000000000
#03652:000000000000000000000053000000000000000000000000
#03657:0053
#0365b:000000000053000000000000000000000000000000000000
#02856:0000005300000000
#02852:0053000023000000
#02857:0023
#0285b:0000006300000000
#02757:00000013
#0275b:00130000
#02756:0013
#02752:13
#02352:0000005300000000
#0235b:00530000
#01156:0053
#01157:63
#01056:53
#00957:63
#0033c0:0012220000000000
#003320:0000000012220000
#004380:12
#0043c0:0022000000000000
#004360:00120000
#004320:0000002200000000
#004380:0000000012522200
#004390:00000000000000000052000000000000
#004370:00000000000000000000005200000000
#005320:0000001200002200
#005360:00000000000000000052000000000000
#005381:0000001200002200
#0053c1:00000000000000000052000000000000
#0063a1:0000122200000000
#006341:0000000012220000
#0083a1:14
#008361:00003424000000000000000000000000
#009371:13
#0093b1:00000023
#010361:13
#010321:00000023
#011371:13
#0113b1:00230000
#011361:0013
#011321:00000023
#012371:13
#0123b1:00230000
#0123b1:000000000000000000000000000000000000000000000013
#013371:005300000000
#0133b1:0000002300000000
#013360:1300002300000000
#013320:00000053000000000000000000000000
#014370:132300000000000000000000
#014360:000000000000132300000000
#0153b0:13
#015370:002300000000000000000000
#015320:0013
#015360:000000000000002300000000
#017380:0012000000000000
#0173c0:00220000
#017361:00120000
#017321:0000002200000000
#019361:0012000000000000
#019321:00220000
#019381:0012
#0193c1:0000000000220000
#021351:0000000000000013
#022321:23
#022321:0013
#022361:00000023
#0233b1:00130000
#023371:0000002300000000
#023320:0000001300000000
#023360:0023
#023320:000000000000000000000000000000130023000000000000
#024360:0013000000000000
#024320:00230000
#024370:000000000000000000000013000000000000230000000000
#0243b0:000000000000000000000000000000000000000000000000000000000053000000000000000000000000000000000000
#024321:000000000000000000000013000000000000230000000000
#024361:000000000000000000000000000000000000000000000000000000000053000000000000000000000000000000000000
#025381:000000132300000000000000
#025351:000000000000000000132300
#0263b1:00130000
#0263a1:000000000000003300000000000000000000000000000000
#026391:003300
#026381:0000002300000000
#026320:0000001300000000
#026330:000000000033000000000000
#026340:000000000000000000000033000000000000000000000000
#026350:0023
#028320:0013000053000000
#028360:0000003300230000
#0283b1:0000001300230000
#028371:0053
#033371:13
#0333b1:0023000000000000
#033321:00130000
#033361:002300
#0333b1:000000000000000000000013000023000000000000000000
#033360:000000000000001300000000
#033320:00000023
#034320:00130000
#034360:0000002300000000
#0343b0:000000000000000000000013000000000000000000000000
#034370:000000000000002300000000
#034321:000000000000001300000000
#034361:000000000000000000000000000000000023000000000000
#035361:13
#035321:0023000000000000
#0353b1:00130000
#035371:0000002300000000
#035321:000000000000000000000013000023000000000000000000
#035370:000000000000001300000000
#0353b0:00000023
#035320:000000000000000000000000000000000000000000000013
#036360:002300000000000000000000
#0363b0:000000000013000000000000000000000000000000000000
#036370:0000002300000000
#036320:000000000000000000000013000000000000000000000000
#036360:00000023
#036371:0013
#0363b1:00000023
#0373b1:000000000000000000000013000000000000000000000000
#037371:000000000000002300000000
#037320:000000000000001300000000
#037360:00000023
#038360:0013000000000000
#038320:00230000
#038370:000000000000000000000013000000000000000000000000
#0383b0:000000000000002300000000
#038321:000000000000001300000000
#038361:000000000000000000000000000000000023000000000000
#039321:000000000000000000000013000000000000000000000000
#039361:000000000000002300000000
#0393b0:000000000000001300000000
#039370:00000023
#0393b0:000000000000000000000000000000000000000000000013
#040370:002300000000000000000000
#040320:000000000013000000000000000000000000000000000000
#040360:0000002300000000
#0403b0:000000000000000000000013000000000000000000000000
#040370:00000023
#040361:000000000000000000000013000000000000000000000000
#040321:00000023
#0413a1:000000000000000000000014000000000000000000000000
#041361:000000000000002400000000
#041320:000000000000001400000000
#041360:00000024
#042360:000000000000000000000014000000000000000000000000
#0423a0:000000000000002400000000
#042361:000000000000001400000000
#042321:000000000000000000000000000000000024000000000000
#043321:000000000000000000000014000000000000000000000000
#043361:000000000000002400000000
#0433a0:000000000000001400000000
#043360:00000024
#043360:0000000000000014
#0443a0:24
#044361:14
#044321:0024000000000000
#044321:000000000000000000000013000000000000230000000000
#044361:000000000000000000000000000000000000000000000000000000000053000000000000000000000000000000000000
#044370:00001323
#0443b0:0000000000530000
#045320:00140000
#045360:0000002400000000
#045360:000000000000000000000014000000000000000000000000
#045320:000000000000002400000000
#0453a1:000000000000001400000000
#045361:00000024
#046321:000000000000143400000000
#046361:000000000000000000000000000000000024000000000000
#046360:000000000000001400000000
#0463a0:000000000000000000000000000000000024000000000000
#047360:000000000000000000000014000000000000000000000000
#0473a0:000000000000002400000000
#048320:000000000000000000000014000000000000240000000000
#048360:000000000000000000000000000000000000000000000000000000000054000000000000000000000000000000000000
#0493b0:00130000
#049370:0000002300000000
#0493b0:00000013
#049370:0000000000000023
#050370:00130000
#0503b0:0000002300000000
#051320:00130000
#051360:0000002300000000
#051320:00000013
#051360:0000000000000023
#052320:000000132300000000000000
#0523b0:000000000000132300000000
#052320:000000000000000000132300
