This file was generated by Ched 2.7.0.0.
#TITLE ""
#ARTIST ""
#DESIGNER "hard"
#DIFFICULTY 0
#PLAYLEVEL
#SONGID ""
#WAVE ""
#WAVEOFFSET 0
#JACKET ""
#REQUEST "ticks_per_beat 480"
#00002: 4
#BPM01: 90
#00008: 01
#TIL00: ""
#VOLUME: ""
#HISPEED 00
#MEASUREHS 00
#00118:1212
#00114:0000120000000012
#00116:0012001200000000
#0011a:0000000000000012
#0001a:0000000000000012
#00014:0000000000000012
#00215:0000000000000012
#00219:0000000000000012
#00216:1212
#0021a:00120000
#00218:0012001200000000
#00419:0000000000000012
#00415:0000000000000012
#0041b:12121200
#00416:0012001200000000
#00515:0000000000000012
#0051c:12
#00516:0012000000000000
#0051a:00120000
#00519:0000000000000012
#00510:41
#02818:1300001300001300
#02815:0013000000000013
#02812:0000001300000000
#0281b:0013000000000000
#03118:0000130000000013
#03115:00000013
#0311b:000000000000000000000013000000000000000000000000
#04918:000013000000000000000000000000130000000000000000
#04915:000000130000000000000000000013000000000000000000
#04912:23
#00313:12121200
#00318:0012001200000000
#00315:0000000000000012
#00615:0000000000000012
#00612:12
#00618:0012000000000000
#00614:00120000
#0061a:0000001200000000
#00616:0012
#00619:0000000000000012
#00716:0012000000000012
#0071c:12
#0071a:00120000
#00714:0000001200000000
#01412:13000013
#01418:00131300
#01415:0013000000130013
#0141b:0000001300000000
#02915:0000001300001300
#02912:2300130013000013
#0291b:23001313
#02918:0000130000130000
#03015:1300001300001300
#0301b:13131300
#03018:0013000000000000
#03012:000000000000130000000000130000000000000000000013
#05018:000013000000000000000000000000130000000000000000
#05015:0013000000001300
#05012:0000000000000013
#05115:001300000000000000000000
#0511b:0013000000000000
#05118:230000000000001300000000
#05112:0000000000130000
#05215:001300000000000000130000
#0521b:000000130000000000000000000000000000000000230023
#05218:0000000000130000
#05212:000000000000000000000000000000000000000000230023
#0081a:0000001200000000
#00818:120000000000000000000000120000000000000000000013
#00816:0000000000120000
#00814:00000012
#00812:000000000000000000000000000000000000000000000013
#00915:000000000000000000000000000000000013000000000000000000000000000000000000000000000000000000000000
#0091b:000000000000000000000000000000000013000000000000000000000000000000000000000000000000000000000000
#00912:0000000000000013
#01312:000000000000000000000013000000000000000000000000000000000000000000000000000000000000000000000000
#01318:000000000000000000000013000000000000000000000000000000000000000000000000000000000000130000000000
#0131b:0000000000130000
#01315:00000013
#01310:41
#0121b:130000000000000000000000000000130000130000000013
#01215:130000000000130000000000000000000000130000000013
#01218:0013000013000000
#01212:0000001313000000
#03215:0000130000000013
#03212:130000000000000000000023000000000000000000000000
#03218:000000130000000000001300
#0321b:130000000000000000000023000000000000000000000000
#03213:0000003300000000
#0321a:0000003300000000
#0411b:0013000000000000
#04118:000000000000000000000000000000000000000013000013
#04115:0000000000000013
#04112:23
#04415:0000232323000013
#04418:230000000000000023000023000000000000000013000013
#0441b:0023000000000000
#0451b:0013000000000000
#04518:000000000000000000000013000000000000000000130000
#04512:00130000
#04515:230000000013
#04510:41
#04018:000000000000000000000000000000000000000013000013
#04012:0000000000000013
#0401b:000000000000000000000013000000000000000000000000
#04015:000000000000000000000013000000000000000000000000
#04218:000000130000000013000000000000000000000000000000
#04215:1300001300000013
#04212:000000000000130000000000000000000014000000000000
#0421a:000000000000000000000014000000000000000000000000
#04216:000000000000001400000000
#0421b:000000000000000000000000000000000000000013000013
#04315:2300000000000013
#04318:0013000000001300
#03315:000000000000000000000000000000000000000013000013
#03318:0000000000000013
#03312:0013000000000000
#0331b:23
#0331f:21
#02418:000000000000000000000013000000000000000000000000
#02415:001300
#0241a:13
#02414:001300000000000000000000
#0271b:0000000000000013
#02715:000000000000000000000000000000000000000000000013
#0271f:11
#01515:0013000000000013
#01518:13130013
#01512:0000001300130000
#0151b:0013
#0161b:13000013
#01618:0013000000130013
#01615:00131300
#01612:0000001300000000
#03518:13
#03515:0013000000001300
#03412:000000000000000000000000000000000000000013000013
#03415:000000000013000000000000000000000000000000000000
#03418:0000000000000013
#03410:41
#0381b:00130000
#03812:000000130000000000000014000000000000000000000000
#03818:1300001300000013
#03815:000000000000000013000000000000000000000013000013
#03816:000000000000001400000000
#0381a:000000000000000000000000000000000014000000000000
#03715:000000000000000033000013000000000000000013000013
#03718:230000000013000000000000000000000000000000130000
#0371b:00000013
#03712:0013000000000000
#03615:000000000000000000000013000000000000000013000013
#03618:0000000013000013
#0361b:000000000013000000000000000000000000000000000000
#04612:13
#04615:000000130000000000000000230013000000000000130000
#04618:000000000000130000000000000000000000000013000013
#0461b:0000001300000000
#03918:130000000013000000000000000000000000130000000000
#03912:000000130000000033000013000000000000130000000000
#0471b:000000130000000033000013000000000000130000000000
#04715:230000000013000000000000000000000000130000000000
#04818:000000000000000000000013000000000000000000000000
#04812:000000000000000000000013000000000000000000000000
#01816:0000000012000012
#01818:0000001200000000
#0191c:12
#01912:0000001200000012
#0191a:00120000
#01914:0012000000000000
#01910:41
#02014:0012000000000000
#02015:0000000000000013
#02018:12000013
#02012:0000000000130000
#0201a:00120000
#0201c:0012
#02016:0000001200000000
#01718:0012000000000012
#01716:12
#01714:00120000
#0171a:0000001200000000
#02118:0013000000000013
#02115:001300000000000000001300
#0211b:23000013
#02318:130000000013000000000000130000000000000000000000
#02315:000000000000001300000000
#02312:000000130000000000000000000000000000000013000000
#0231b:0000000000000013
#02313:000000000000000000000000000000000000000000000013
#02218:000013000000000000000013000000000000000000000000
#02215:000000130000000000000000130000000000000000000013
#02212:1300001300000000
#0221b:000000130000000000001300
#01018:13131300
#01012:13000013
#01015:0013000000130000
#0101b:0000001300000013
#0111b:1300000000000013
#01115:1300130000130000
#01118:0013000013001300
#01112:0000001313000000
#02615:000000333333000000000000000000333333230000000000
#02613:003300000000000000000000003300000000000000000000
#02614:003300000000003300000000
#0261a:000000000000003300000000000000000000000000000000
#02619:003300
#02618:000000000000000000333333000000000000000000000000
#02510:41
#03052:000000000000000000000000000000000000000000000053
#03055:00000063
#00852:000000000000000000000000000000000000000000000063
#00858:000000000000000000000000000000000000000000000063
#00955:000000000000000000000000000000000023000000000000000000000000000000000000000000000000000000000000
#0095b:000000000000000000000000000000000023000000000000000000000000000000000000000000000000000000000000
#01352:000000000000000000000023000000000000000000000000000000000000000000000000000000000000000000000000
#01358:000000000000000000000023000000000000000000000000000000000000000000000000000000000000000000000000
#0125b:000000000000000000000000000000000000000000000053
#01255:000000000000000000000000000000000000000000000053
#02855:0063000000000000
#0285b:0063000000000000
#02858:0000006300000000
#02852:0000006300000000
#0315b:000000000000000000000063000000000000000000000000
#03158:00530000
#03252:530000000000000000000013000000000000000000000000
#03255:00630000
#03258:00530000
#0325b:630000000000000000000013000000000000000000000000
#04152:13
#04555:13
#04558:000000000000000000000053000000000000000000000000
#0335b:13
#02458:000000000000000000000063000000000000000000000000
#0245b:00000013
#02655:00000013
#03558:13
#03658:0053
#0365b:000000000063000000000000000000000000000000000000
#03758:13
#03755:000000000000000000000063000000000000000000000000
#03752:000000000000001300000000
#04355:13
#03955:000000000000001300000000
#03952:000000000000000000000063000000000000000000000000
#03958:13
#0405b:000000000000000000000063000000000000000000000000
#04055:000000000000000000000063000000000000000000000000
#04858:000000000000000000000053000000000000000000000000
#04852:000000000000000000000053000000000000000000000000
#04655:000000000000006300000000
#04652:000000000000000000000000000000000013000000000000
#04758:000000000000001300000000
#0475b:000000000000000000000053000000000000000000000000
#04755:13
#02152:0000001300000000
#04455:0063
#003390:0000000000122200
#005340:0000001200002200
#007380:00001222
#008320:000000000000000000000000000000000000000000130033
#009350:000000000000000000000000000000000053000000000000000000000000000000000000000000000000000000000000
#009320:00000023
#008381:000000000000000000000000000000000000000000130033
#0093b1:000000000000000000000000000000000053000000000000000000000000000000000000000000000000000000000000
#009381:00000023
#012351:000000000000000000000000000000000000000000130033
#013321:000000000000000000000053000000000000000000000000000000000000000000000000000000000000000000000000
#013351:0023
#0123b0:000000000000000000000000000000000000000000130033
#013380:000000000000000000000053000000000000000000000000000000000000000000000000000000000000000000000000
#0133b0:0023
#017360:00001222
#018340:1232220000000000
#019380:00001222
#021320:0000132300000000
#023350:0000132300000000
#023380:000000000000000000000000000000130023000000000000
#024390:0013230000000000
#024380:000000000000000000130033000000000000000000000000
#0243b0:00000023
#025320:1300332300000000
#025330:003300000033000000000000000000000000000000000000
#025340:003333000000000000000000
#025350:0033000000000000
#0253b0:0000000013003323
#0253a0:000000000000000000000000003300000033000000000000
#025390:000000000000003333000000
#025380:0000000000330000
#026320:13
#026330:003300000000000000000000000000000000000000000000
#026340:003300000000000000000000
#026350:000000333333230000000000000000000000000000000000
#0263b1:00130000
#0263a1:000000000000003300000000000000000000000000000000
#026391:003300
#026381:000000000000000000333333230000000000000000000000
#026320:0013
#026330:000000000000000000000000003300000000000000000000
#026340:000000000000003300000000
#026350:000000000000000000000000000000333333230000000000
#0263b0:0000000000000013
#027380:23
#027320:0013000000000000
#027350:00230000
#027380:0000001300000000
#0273b0:0023
#027350:0000000000130000
#027320:00000023
#028350:0013000000230000
#028320:0000003300000000
#0283b1:0013000000230000
#028381:0000003300000000
#030351:00000013
#030321:000000000000000000000000000000000000000000000033
#031351:0023000000000000
#031381:0000130000230000
#0313b1:000000000000000000000033000000000000000000000000
#032321:130000000000000000000023000000000000000000000000
#032351:00330000
#032331:0000003300000000
#0323b0:130000000000000000000023000000000000000000000000
#032380:00330000
#0323a0:0000003300000000
#0333b0:000000133300003300000000
#033380:000000000000000000000033000000000000230000000000
#034380:1323000000000000
#034380:000000130000003300000000
#0343b0:000000000000000000330033000000000023000000000000
#0353b0:000000000000130033330000000000000000000000000000
#035380:000000000000000000000033000023000000000000000000
#035380:000000000000000000000000000000000000000000130033
#0363b0:000033000033000000000000000000000000000000000000
#036380:0000002300000000
#036380:0013
#0363b0:00000023
#037320:000000130000002300000000
#037350:000000000000000033330033000000000000000000000000
#039350:000000130000002300000000
#039320:000000000000000033330033000000000000000000000000
#039380:000000000000000000000000000000000000000000130033
#0403b0:000033000000000000330033000000000000000000000000
#040380:000000000033000000000000000000000000230000000000
#039321:000000000000000000000000000000000000000000130033
#040351:000033000000000000330033000000000000000000000000
#040321:000000000033000000000000000000000000230000000000
#041321:000000133300003300000000
#041351:000000000000000000000033000000000000230000000000
#043321:000000000000130033330000000000000000000000000000
#043351:000000000000000000000033000023000000000000000000
#044351:0013
#044321:00000023
#045381:000000000000000000130033000000000000000000000000
#0453b1:000000000000002300000000
#046351:000000000000133300000000
#046321:000000000000000000000000000000000023000000000000
#047381:000000130000002300000000
#0473b1:000000000000000033330033000000000000000000000000
#0473b1:000000000000000000000000000000000000000000130033
#048381:000033000000000000330033000000000000000000000000
#0483b1:000000000033000000000000000000000000230000000000
#047350:000000000000000000000000000000000000000000130033
#048320:000033000000000000330033000000000000000000000000
#048350:000000000033000000000000000000000000230000000000
#0493b0:00132300
#049380:0000003300000000
#049320:00000013
#049350:0000000000000033
#050320:23
#0503b0:00132300
#050380:0000003300000000
#051350:00132300
#051320:0000003300000000
#051380:00000013
#0513b0:0000000000000033
#052380:23
#052350:00132300
#052320:0000003300000000
