This file was generated by Ched 2.7.0.0.
#TITLE ""
#ARTIST ""
#DESIGNER ""
#DIFFICULTY 0
#PLAYLEVEL
#SONGID ""
#WAVE ""
#WAVEOFFSET 0
#JACKET ""
#REQUEST "ticks_per_beat 480"
#00002: 4
#BPM01: 90
#00008: 01
#TIL00: ""
#VOLUME: ""
#HISPEED 00
#MEASUREHS 00
#00019:000000000000000000000000000000000000000000000012
#00013:000000000012
#0001b:0000000000000012
#00115:120012000000000012000000000000000000000000000012
#00112:000000000012000000000000000000120000000000000000
#00117:0000120012120000
#00119:0012001200000000
#0011c:000000000000000000000012000000000000120000000000
#0011b:000000000012
#00113:0000000000000012
#00319:0000001200000000
#0031c:120000120000000000000012000000000000000000120000
#00317:000012000000000000000000120000120000120000120000
#00312:000000000000120000000000000000000000120000000012
#00315:0000001200000000
#00412:00001200001200000000000000000000
#0041c:000000120000000000001200000000000000120000000000000000000000000000000000000000000000000000000000
#00415:000000000000000000000012120000001200000000000000
#00417:12120000
#00419:000000000000000000000012120000001200000000000000
#0041a:0000000000120000
#0041b:000000000000001200001200
#00413:000000000000000000000000000012000000000000120000
#00414:000000000000000000000000000000120000000000000012
#00919:0013001300130000
#0091b:00130013
#00917:1313
#00914:0000000000130000
#00916:000000000000130000000000000000000000130000130013
#00912:13
#01315:000000000000000000000000000000000013000000160000
#01312:280013000000000000130000000000130000000013000000
#01318:000000000000000000000000000000000000160000000013
#01317:000000130000000013000000000013000000000000000000
#01316:000000000013000000000000130000000000000000000000
#0131b:000000000000130000000013000000000000000000000000
#01310:41
#0161b:000013130000000013000000000000130000000013130013
#01615:0016000016000000
#01612:000000000000130000000013130000000013130000000013
#01617:00130013
#01616:000000000000000013000000000000130000000000130000
#01618:16
#00212:000000000000000000000012000000000000120012000012
#00217:0000120012120012
#00219:121200001200000000000000
#0021c:000000000012000000000000000000120000000000000000
#00215:0012001200000000
#00618:000000000000000000000012120000000000000000000000
#0061a:0000000000120012
#00614:120000000012
#00612:000000000000000000000000000000000000000000000012
#0061c:00000012
#00616:000000000012000000120000120000000000000000000000
#00615:001200000000000000000000
#00619:0012000000000000
#00717:12
#00712:000000120000120000000000000000000000000012000000
#00718:000000000012000000000000000000000000000000120000
#0071a:000000001200000000120000
#00714:000000000000000000120000000000000012000000000000
#0071c:000000000000000000000012000000120000000000000000
#00716:000000000000000000000000120012000000000000000012
#0201a:00001414
#02012:000000120000120000000000000000140000000013000000
#02018:0000000000000016
#0201b:000000000000000000000000000000000000000000000013
#02017:000000000000000000000012000012000012000000000000
#0201c:0012001200000000
#02019:12
#02015:12
#02116:000000000000000000000000000000130013000000000000
#0211b:0013001300001300
#02112:260000130000130000001300
#02117:0000000013000013
#02118:001300130000000000000000
#02115:000000130013000000000000000000000000000000000000
#02215:130000000000000000000013000000000000000000000000
#0221b:000013000000000000000000000000130000000000130000
#02216:000000000000130000000000000000130000000013000000
#02218:0013000000000000
#02219:000000000013000000000000000000000000000000000000
#02214:0000001300000000
#02217:000000000000000013000000000000000000130000000013
#02212:0013
#02314:001300000000000000001300
#02317:0013000000000013
#02319:000000000013000000000000000000000000000000000013
#0231b:000000000000000000130013000000000000000000000000
#02312:13000013
#02318:0000000013130000
#02315:000000000000000000000000000013000013000000000000
#02316:00130000
#02418:000013000000000000130000000000000000000000000000
#0241b:000000130000000000000013000000000000130000000000
#02412:0000130000130013
#02416:1313
#02417:0000000000130013
#02415:001300
#02518:000014000000000000000000000000000014000000000000
#02516:001400001400000000140000001400001400000000140000
#02512:240000140000000014000000240000000000000000000000
#02514:000000000014000000000000000014000000000000000000
#0251a:240000000000000000000000240000140000000014000000
#02510:41
#0261a:241400001414240000240000
#02618:000000000000000000000000000014001400000000000013
#02612:240000140014001400000014240000000000240000160000
#02616:001400001400240000140000000000240000000000000000
#02614:000000000000000000000000001400000014000000000000
#02718:1616000000160000
#02712:000000000000160000160000000000000013000000130000
#02716:000000000000000000000000000000000000000000000013
#02715:000000000013000000000000160000000000160000000000
#0271b:000000000000000000000013000000000000000000130000
#0271f:11
#0281b:13131313
#02817:000013130000000013130000000000000000000000000000
#02812:0013000000131300
#02816:130000000000000000000013000000000000000000000000130000000000000000000000000000000000000000000000
#02818:000000000000000000000000000000000000000000130013
#02815:000000000000000000000013
#0311b:000000000000130000000000130000000013000000000013
#03112:000000000000000000130000000013000000290013000000
#03116:13
#03115:0013262626290029
#03118:001300000000000000000000
#03212:2c00132c00002c00002c001c2c0000000000000013000000
#03218:000000000013000000000000000000000000000000000013
#03215:000000000000000013000000000000000016000000130000
#03216:00000014
#03214:0000000000180000
#03213:000000000000001a00000000
#03312:130000000000130013000000130000130000000000000013
#0331b:230000130000130000131300
#03316:00130000000000000000000000001300
#03315:000000000013000000000000000000000000000000000000
#03317:000000130000000000130013000013000000000000000000
#0331f:21
#03415:000000000000000000000013000000160000000000130013
#0341b:000000130013130000130000000000000000000013000000
#03416:00130000130000000000000000000000
#03412:130000000000000000000000000000130000000000000000000000001300000000000000160000000000000000000000
#03417:13
#03418:000000000000000000000000160000000013000000000000
#03410:41
#04116:260000140000000000000000180000000000000000000000001400000000000000000000000000001400000000001400
#0411a:000000140014000000000014000014000000000000140000
#04112:140000000000000014180000000026000000140000000000
#04115:000014
#04114:000000000000000000000026000000000000000000000000
#04216:000000140000000000140000000000001400000000001400180000000000180000000000000000001400140000000000
#04212:140000140000000000180000000014000000180000000000
#0421a:140000000000140000000000000000000014000000000014
#0431a:140000001400000000141400
#04316:000000140000000000000000000000000000180000000000000000000000000000000000000000000000140000001400
#04312:000000000000140000001400180000000000000000001600001300002600000000000000000000000000000000000000
#04318:000000000000000000000016000026000000000000000000
#0431b:000000000000000000000000000000000000000000000000001300000000000000000000000000000000000000000000
#04314:26
#04812:280000000014000013000000290000000013000013000000
#04818:000014000000000000001300000000130000000000001300
#0481b:000000000000000000000013000013000000000000000013
#04815:000000000000000000130000000000001300290000130000
#04814:0014000000000000
#04816:00280000
#01412:161300160000001600000000
#01418:000016000013000000000000160000000000160000000000
#0141b:000000000000000013000000000013000013000000000000
#01415:000000000000000000160013000000000000000013160000
#03617:001300130000001300001300
#03612:000000130013130000000000000000130000000000130013
#0361b:130000000000000000130013130000000000130000000000
#03616:130013130000
#03615:000000000000000000000000000000000013000000000000
#03619:000013
#0441a:240000000000240000000000240000000000140000000014
#04412:24242414
#04416:000000240000000000240000000000120012000000000000
#04418:000000000024000024000000000000001200000014000000
#04414:000024000000000000000024000000000000000000140000
#04516:000000000014000000000000000000000000000000000014
#04514:000000000000000014000000000000000000000000140000
#04518:000014000000000000000026000016000000000014000000
#04512:2800001a00001800001600160000260000161c0000000000
#0451a:14
#04510:41
#04612:140018000014140000140000240026000000000000000014
#04616:000000000000000000000000000000000000000000000000000000000000000000000000000000000000000000000000000000000000000000000000000000000000000000000000000000000000000000000000000000000000000000000000000000000000000000000000000000000000000000000000000000000000000000000000000000000000000000000000000000000000000000000000000000000000000000000000000000000000000000000000000000000000000000000000000000000000000000000000000000000000000000000000000000000000000000000000000000000000000000000000000000000000000000000000000000000000000000000000000000000000000000000000000000000000000000000000000000000000000000000000000000000000000000000000000000000000000000000000000000000000000000000000000000000000000000000000000000000000000000000000000000000000000000000000000000000000000000000000000000000000000000000000000000000000000000000000000000000000000000000000000000000000000000000000000000000000000000000000000000000000000000000000000000000000000000000000000000000000000000000000000000000000000000000000000000000000000000000000000000000000000000000000000000000000000000000000000000000000000000000000000000000000000000000000000000000000000000000000000000000000000000000000000000000000000000000000000000000000000000000000000000000000000000000000000000000000000000000000000000000000000000000000000000001800000000000000000000000000000000000000000000000000000000000000000000000000000000000000000000000000000000000000000000000000000000000000000000000000000000000000000000000000000000000000000000000000000000000000000000000000000000000000000000000000000000000000000000000000000000000000000000000000000000000000000000000000000000000000000000000000000000000000000000000000000000000000000000000000000000000000000000000000000000000000000000000000000000000000000000000000000000000000000000000000000000000000000000000000000000000000000000000000000000000000000000000000000000000000000000000000000000000000000000000000000000000000000000000000000000000000000000000000000000000000000000000000000000000000000000000000000000000000000000000000000000000000000000000000000000000000000000000000000000000000000000000000000000000000000000000000000000000000000000000000000000000000000000000000000000000000000000000000000000000000000000000000000000000000000000000000000000000000000000000000000000000000000000000000000000000000000000000000000000000000000000000000000000000000000000000000000000000000000000000000000000000000000000000000000000000000000000000000000000000000000000000000000000000000000000000000000000000000000000001414000000000000000000000000000000000000000000000000000000000000000000000000000000000000000000000000000000000000000000000000000000000000000000000000000000000000000000000000000000000000000000000000000000000000000000000000000000000000000000000000000000000000000000000000000000000000000000000000000000000000000000000000000000000000000000000000000000000000000000000000000000000000000000000000000000000000000000000000000000000000000000000000000000000000000000000000000000000000000000000000000000000000000000000000000000000000000000000000000000000000000000000000000000000000000000000000000000000000000000000000000000000000000000000000000000000000000000000000000000000000000000000000000000000000000000000000000000000000000000000000000000000000000000000000000000000000000000000000000000000000000000000000000000000000000000000000000000000000000000000000000000000000000000000000000000000000000000000000000000000000000000000000000000000000000000000000000000000000000000000000000000000000000000000000000000000000000000000000000000000000000000000000000000000000000000000000000000000000000000000000000000000000000000000000000000000000000000000000000000000000000000000000000000000000000000000000000000000000000000000000000000000000000000000000000000000000000000000000000000000000000000000000000000000000000000000000000000000000000000000000000000000000000000000000000000000000
#04618:000000000000000000000000000026000000000000140000
#04614:000000000014
#0461a:140000140000140000000014240000000000000000000000
#04718:000000000000000014160000000000000000000000000000
#04716:280000000014180000000000000028000014000014180000
#0471a:000000000000000000000000240000000000000000000014
#04714:0000141a0000000000000000000000000000000000000000
#04712:140000000000000000000028000000240000180000000000
#05214:000000000000000000001800000000131800000000001600
#05218:000000000016
#05212:000013000000140018000000000000000013180000000026
#05216:000000000000000000000000180018000000000000260000
#0521b:130000000000000000000013000000000000000000000000
#05219:0000001300000000
#05217:000000000013130000000000000000000000000000000000
#05215:0016000000000000
#04917:000000000000000000000000000000000013130000000000
#0491b:00000000000013001300000000130000
#04912:260000000013130000000000000000130000140000130000
#04915:000013000000000000000016000016000000000000000016
#0491a:00140000
#04918:1613000000000000
#04916:00000000001300000000000000000000
#0501b:000013000000000000130000000000000000000000000000
#05012:130000000000000000000000000000130000000000001800000000001400000000000000140000000000000000000000
#0501a:000000140000140000001400
#05016:000000000013130000000000000000140018000000140014
#05015:0016000000000000
#0151b:000000130013
#01515:000000000000000000160000000000000000000000160013
#01512:130000000013160000000000000000000000160000000000
#01518:000000000000000013000000000000000013000000000000
#01516:0013
#01517:13
#01819:000000000012000000000000000000000000000012000000
#01812:0000000012001212
#01817:120012000000000012120012120000120000000000120000
#0181b:0012000000000000
#01815:000000001200000000000000000000000000000000000012
#01813:00120000
#0181c:1200001200120000
#01912:000012000000000000120000000000000000000000000000
#01917:120000120000120012000000120000120000000000000012
#0191c:120000000000000000000012000000000000000000000000
#0191a:000000000000000000121200
#01914:000000000000000000000000000000000012000000120000
#01910:41
#0051a:120000000000000000000000000000000000000000000012
#00519:001200000000000000000000
#00515:0012000000000000
#00518:000000000012000000120000000000000000000000000000
#00513:000000000012
#0051b:0000000000000012
#00516:0012
#00514:0000000000120000
#00512:00000012
#00510:41
#0081a:14
#00812:14
#01715:12
#01719:120000000000000000000012000000000000000000000000
#01717:000012000000000000000000120000120000000000120000
#01712:0012001200120012
#0171c:00120012
#01714:000000000012
#0171a:000000000000000000000000000000000000000000000012
#02912:1313000013130000
#0291b:2300131300001313
#02916:000013000013
#02917:001300000000001300000000
#0351b:130000000000130000130000130000130000000000000013
#03518:000000000013000000000000000000000000000000000000
#03516:000000130000000000000013000013000000000000000000
#03512:130000130000130000131300
#03517:00130000000000000000000000001300
#04012:130000000000000000130013130000000000130000000014
#04012:000000000000000000130013000000000000000000000000
#04016:001300130000001300001400
#04016:000000000000001300000000
#04017:130013130000
#0401a:0000000000000014
#0401b:000000130013130000000000000000130000000000000000
#0401b:0000000000130000
#04014:000013
#04014:000013
#04019:000000000000000000000000000000000013000000000000
#04019:000000000000000000000000000000000013000000000000
#01017:000000000000130000000000000000000000130000130013
#01012:00130013
#01014:0013001300130000
#01019:0000000000130000
#01016:0013
#0101b:13
#01116:000000130000000000000013000000000000130000000000
#01112:1300001300130000
#0111b:0013000013000013
#01117:000000000000130000000000000000130000000000000013
#0121b:000000000000000000000000000000000013000000000013
#01216:0000131300001800
#01217:0013000000130013
#01212:140000130000000000000013180000000000000013000000
#0121a:00140000
#05116:000000000000000000000000000000000013130000000000
#05112:16000000140013001300000000130000
#0511a:00000014
#05115:000000130000000000000016000016000000000000000016
#0511b:000000000013130000000000000000130000000000130000
#05118:261300000000000000000000
#05117:00000000001300000000000000000000
#03012:130013000013
#03017:0000131300001313
#03016:0013000013130000
#0301b:001300000000001300000000
#03716:000000000013000000000013000000000000000000130000
#0371b:000000130000000000000000130000000000000000000000130000000000000000000000000000001300000000001300
#03712:230000130000000013000000000013000000130000000000
#03717:1300001300131300
#03812:130000000000130000000000160000000000000013130000
#03816:000000130000000000000000000000001300130000000000000000000000000000000000000000000000000000000000
#0381b:130000130000000000130000000013000000000000000013
#03817:00000013000000000000000000001300
#03818:000000000000000000000013000000000000160000000000
#03815:000000000000000000000000000000160013000000000000
#03917:000000000013000000000013000000000000000000130000
#03912:000000130000000000000000130000000000000000000000130000000000000000000000000000001300000000001300
#0391b:130000130000000013000000000013000000130000000000
#03916:1300001300131300
#02157:0000000023000053
#0215b:0000006300000000
#02156:0000001300000000
#02152:00530000
#02852:0053000000000000
#02857:0000006300000000
#0285b:0023
#02856:000000000000000000000023000000000000000000000000000000000000000000000000000000000000000000000000
#03252:001c
#03352:530000000000000013000000000000530000000000000000
#03356:00230000000000000000000000000000
#0335b:13
#00157:0052
#00152:0000000000220000
#0035c:0052000000000000
#00357:0052
#00457:52620000
#0045c:00220000000000000000000000000000
#00452:00000000002200000000000000000000
#0045a:0000000000620000
#0045b:000000000000002200000000
#00459:000000622200
#00454:0000000000520000
#00453:000000000000002200000000
#00455:000000522200
#00757:52
#01655:0036000046000000
#0245b:0023000000004300
#02456:0063
#02452:0000000000230000
#02556:0000001400000014
#02652:0000000000003466
#0265a:00000044
#02755:13
#02758:0056130000660000
#02752:0000005613000000
#0275b:00000013
#03456:00230000630000000000000000000000
#03452:530000000000000000000000000000230000000000000000000000001300000000000000000000000000000000000000
#03457:13
#04256:00240024000000000000480000000000
#0425a:5444000000000000
#04252:3464000000000000
#00956:00230000
#00952:53
#0415a:000000000000000000000064000064000000000000000000
#04155:000024
#04156:460000240000000000000000000000000000000000000000002400000000000000000000000000000000000000000000
#04154:000000000000000000000036000000000000000000000000
#04152:540000000000003600000000
#04957:00000063
#0495b:00000000000000000000000000230000
#04952:00630014
#0495a:00140000
#04956:00000000002300000000000000000000
#01357:0053000000000000
#01356:0063
#01352:18
#01957:0052000062000000
#0465a:0054000000000000
#04652:000000000000000000640000000066000036000000000000
#04656:000000000000000000000000000000000000000000000000000000000000000000000000000000000000000000000000000000000000000000000000000000000000000000000000000000000000000000000000000000000000000000000000000000000000000000000000000000000000000000000000000000000000000000000000000000000000000000000000000000000000000000000000000000000000000000000000000000000000000000000000000000000000000000000000000000000000000000000000000000000000000000000000000000000000000000000000000000000000000000000000000000000000000000000000000000000000000000000000000000000000000000000000000000000000000000000000000000000000000000000000000000000000000000000000000000000000000000000000000000000000000000000000000000000000000000000000000000000000000000000000000000000000000000000000000000000000000000000000000000000000000000000000000000000000000000000000000000000000000000000000000000000000000000000000000000000000000000000000000000000000000000000000000000000000000000000000000000000000000000000000000000000000000000000000000000000000000000000000000000000000000000000000000000000000000000000000000000000000000000000000000000000000000000000000000000000000000000000000000000000000000000000000000000000000000000000000000000000000000000000000000000000000000000000000000000000000000000000000000000000000000000000000000000000000000000000000000000000000000000000000000000000000000000000000000000000000000000000000000000000000000000000000000000000000000000000000000000000000000000000000000000000000000000000000000000000000000000000000000000000000000000000000000000000000000000000000000000000000000000000000000000000000000000000000000000000000000000000000000000000000000000000000000000000000000000000000000000000000000000000000000000000000000000000000000000000000000000000000000000000000000000000000000000000000000000000000000000000000000000000000000000000000000000000000000000000000000000000000000000000000000000000000000000000000000000000000000000000000000000000000000000000000000000000000000000000000000000000000000000000000000000000000000000000000000000000000000000000000000000000000000000000000000000000000000000000000000000000000000000000000000000000000000000000000000000000000000000000000000000000000000000000000000000000000000000000000000000000000000000000000000000000000000000000000000000000000000000000000000000000000000000000000000000000000000000000000000000000000000000000000000000000000000000000000000000000000000000000000000000000000000000000000000000000000000000000000000000000000000000000000000000000000000000002424000000000000000000000000000000000000000000000000000000000000000000000000000000000000000000000000000000000000000000000000000000000000000000000000000000000000000000000000000000000000000000000000000000000000000000000000000000000000000000000000000000000000000000000000000000000000000000000000000000000000000000000000000000000000000000000000000000000000000000000000000000000000000000000000000000000000000000000000000000000000000000000000000000000000000000000000000000000000000000000000000000000000000000000000000000000000000000000000000000000000000000000000000000000000000000000000000000000000000000000000000000000000000000000000000000000000000000000000000000000000000000000000000000000000000000000000000000000000000000000000000000000000000000000000000000000000000000000000000000000000000000000000000000000000000000000000000000000000000000000000000000000000000000000000000000000000000000000000000000000000000000000000000000000000000000000000000000000000000000000000000000000000000000000000000000000000000000000000000000000000000000000000000000000000000000000000000000000000000000000000000000000000000000000000000000000000000000000000000000000000000000000000000000000000000000000000000000000000000000000000000000000000000000000000000000000000000000000000000000000000000000000000000000000000000000000000000000000000000000000000000000000000000000000000000000000000
#04658:000000000000000000000000000056000046000000000000
#0025c:0000000000220000
#00257:0062
#00558:0000005200000000
#00858:00000012000000000000000000000000
#00856:00000012000000000000000000000000
#0155b:001300000000630000000000
#01556:001300000000630000000000
#01552:530000000000001300000000
#01557:530000000000001300000000
#02052:00620000
#0205c:0052000000000000
#02256:0000000000230000
#02252:00006333
#02952:1363000013630000
#0295b:0000135300001353
#0355b:6300000000630000
#03552:13530000
#03557:00230000000000000000000000000000
#01057:00230000
#0105b:63
#01256:00000018
#01252:1418
#0125a:00140000
#01152:53
#01156:0023000000000000
#0115b:0063
#01157:0000000000230000
#02356:00230000
#0505a:00140000
#05052:00000000002300000000000014000000
#05056:00530000
#04356:00240000000000000000000000000000
#04354:36
#0435a:64
#0435b:000000000000000000000000000000000000000000000000002300000000000000000000000000000000000000000000
#04358:000000000000000000000056000016000000000000000000
#04352:000000000000000000000000000000000000000000006600002300001600000000000000000000000000000000000000
#04552:380000000000003600000000
#04558:000000000000000000000046000000000000000000000000
#04752:000000000000000000000038000000000000000000000000
#04756:480000000000004800000000
#04852:3839
#04856:00480000
#04855:00000049
#04057:5353
#04056:00630000
#04052:00000013
#05156:00000053
#05152:00000000140000000000000000230000
#0515a:00000014
#0515b:00530000
#05157:00000000002300000000000000000000
#05252:00140000
#03052:13
#03057:0000136300001363
#03056:0053000013530000
#03156:13
#01752:0052000000220000
#0175c:00620000
#01757:0062
#01857:0052
#0185c:0000000000220000
#03656:5353
#03657:00630000
#0365b:00000013
#00656:0062
#0375b:00230000630000000000000000000000
#03757:5300005300000000
#03752:130000000000003300000000
#0385b:130000630000000000000000000013000000000000000000
#03852:53
#03856:00230000000000000000000000000000
#03857:00000023000000000000000000000000
#03952:00230000530000000000000000000000
#03956:6300006300000000
#0395b:130000000000004300000000
#001370:00001222
#001320:0000000000520000
#002370:00001222
#0023c0:0000000000520000
#0033c0:0012000000000000
#003370:00220000
#003370:0012
#003320:0000000000220000
#004370:1222000000000000
#0043c0:00520000000000000000000000000000
#004370:0000122200000000
#004320:00000000005200000000000000000000
#004390:000000125200
#0043b0:000000000000005200000000
#0043a0:0000000000520000
#0043c0:00000022
#004351:000000125200
#004331:000000000000005200000000
#004341:0000000000520000
#004321:00000022
#005361:0000122200000000
#005380:0000001200000000
#0053c0:00000022
#006380:0000122200000000
#006360:0012
#006320:00000022
#007370:12
#0073c0:0022000000000000
#008380:000000000000125252220000000000000000000000000000000000000000000000000000000000000000000000000000
#008390:000000000000000000000000005200520052000000000000000000000000000000000000000000000000000000000000000000000000000000000000000000000000000000000000000000000000000000000000000000000000000000000000
#008361:000000000000125252220000000000000000000000000000000000000000000000000000000000000000000000000000
#008351:000000000000000000000000005200520052000000000000000000000000000000000000000000000000000000000000000000000000000000000000000000000000000000000000000000000000000000000000000000000000000000000000
#009321:1323
#009361:00530000
#0093b1:000000000000000000000000000000000000000000130023
#0103b1:1323
#010371:00530000
#010321:000000000000000000000000000000000000000000130023
#011321:13230000
#011361:0053000000000000
#011371:0000001300000000
#0113b1:000000000000000000000023000000000000000000000000
#0113b1:00001323
#011371:0000000000530000
#011361:0000000000000013
#011321:000000000000000000000000000000000000000000000023
#0123b1:0000001300000000
#012371:000000000000000000000023000000000000000000000000
#012321:0000000000130000
#012361:000000000000000000000000000000000023000000000000
#013371:0013000000000000
#0133b1:000000000023000000000000000000000000000000000000
#013361:0013
#013321:000000000000002300000000
#014321:000000000000000000000000000000000000000000000013
#015321:33
#015361:002300000000000000000000
#015370:13
#0153b0:002300000000000000000000
#0153b0:000000000000000000000013330000000000000000000000
#015370:000000000000002300000000
#015361:0013
#015321:000000000000002300000000
#017321:0012000000000000
#017371:00220000
#0173c0:00120000
#017370:0000002200000000
#017370:00001222
#017320:0000000000520000
#018370:00001222
#0183c0:0000000000520000
#019370:0012000000000000
#0193c0:00220000
#019370:0012
#019320:0000000000220000
#0203c0:0012000000000000
#020370:00220000
#020321:00120000
#020371:0000002200000000
#021321:00130000
#021361:0000002300000000
#0213b0:0000001300230000
#021370:0053
#021370:0000000000000013
#0223b0:23
#022320:00001323
#022360:0000000000530000
#023360:00130000
#023320:0000002300000000
#0243b0:0013000000000000
#024370:00230000
#024360:00001323
#024320:0000000000530000
#0253a0:00140000
#025360:002400
#025320:00000014
#025360:000000000024
#026320:0000000000000016
#027350:23
#027380:0016230000000000
#027320:0000001623000000
#027380:0000000000160000
#0273b0:00000023
#028320:0013002300000000
#028360:000000000000000000000053000000000000000000000000000000000000000000000000000000000000000000000000
#028371:0000001300230000
#0283b1:0053
#029321:0013000000000000
#029361:00230000
#0293b1:0000001300000000
#029371:0023
#029321:0000000000130000
#029361:00000023
#0293b1:0000000000000013
#030371:23
#030361:0013000000000000
#030321:00230000
#030371:0000001300000000
#0303b1:0023
#030361:0000000000130000
#030321:00000023
#030371:0000000000000013
#0313b1:23
#033321:1323000000000000
#033361:00530000000000000000000000000000
#033321:0000000000130000
#033361:00000023
#034321:1323000000000000
#034361:00530000000000000000000000000000
#034361:0000132300000000
#034321:00000000005300000000000000000000
#0353b1:1323000000000000
#035371:00530000000000000000000000000000
#035321:00130000
#035361:0000002300000000
#0353b1:0000000000130000
#035371:00000023
#036361:13
#036321:002300000000000000000000
#036371:00130000
#0363b1:002300
#036361:0013
#036321:000000000000002300000000
#037371:1323000000000000
#0373b1:00530000000000000000000000000000
#0373b1:00130000
#037371:002300
#037371:0000001300000000
#0373b1:000000000000000000000023000000000000000000000000
#038321:1323000000000000
#038361:00530000000000000000000000000000
#0383b0:0013230000000000
#038370:00000053000000000000000000000000
#039360:1323000000000000
#039320:00530000000000000000000000000000
#039320:00130000
#039360:002300
#039360:0000001300000000
#039320:000000000000000000000023000000000000000000000000
#040370:13
#0403b0:002300000000000000000000
#040360:00130000
#040320:002300
#040370:0013
#0403b0:000000000000002300000000
#041320:1424000000000000
#041360:00540000000000000000000000000000
#0413a0:000000000000000000000014000034000000240000000000
#041360:000000000000000000000000000000000000000000000000005400000000000000000000000000000000000000000000
#041350:000054
#0423a0:1424000000000000
#042360:00540000000000000000000000000000
#042321:0014240000000000
#042361:00000054000000000000000000000000
#0433a1:1424000000000000
#043361:00540000000000000000000000000000
#043381:000000000000000000000016000026000000000000000000
#0433b1:000000000000000000000000000000000000000000000000005300000000000000000000000000000000000000000000
#043320:000000000000000000000000000000000000000000001600005300002600000000000000000000000000000000000000
#045380:000000000000000000160026000000000000000000000000
#045320:000000000000162600000000
#045380:000000000000000000000000000000160026000000000000
#0463a0:0014000000000000
#046360:000000000024000000000000000000000000000000000000
#046320:0000001400000000
#046360:000000000000000000000024000000000000000000000000
#046380:000000000000000000000000000016000026000000000000
#046360:000000000000000000000000000000000000000000000000000000000000005400000000000000000000000000000000
#046321:000000000000000000000000000016000026000000000000
#046361:000000000000000000000000000000000000000000000000000000000000000000000000000000000000000000000000000000000000000000000000000000000000000000000000000000000000000000000000000000000000000000000000000000000000000000000000000000000000000000000000000000000000000000000000000000000000000000000000000000000000000000000000000000000000000000000000000000000000000000000000000000000000000000000000000000000000000000000000000000000000000000000000000000000000000000000000000000000000000000000000000000000000000000000000000000000000000000000000000000000000000000000000000000000000000000000000000000000000000000000000000000000000000000000000000000000000000000000000000000000000000000000000000000000000000000000000000000000000000000000000000000000000000000000000000000000000000000000000000000000000000000000000000000000000000000000000000000000000000000000000000000000000000000000000000000000000000000000000000000000000000000000000000000000000000000000000000000000000000000000000000000000000000000000000000000000000000000000000000000000000000000000000000000000000000000000000000000000000000000000000000000000000000000000000000000000000000000000000000000000000000000000000000000000000000000000000000000000000000000000000000000000000000000000000000000000000000000000000000000000000000000000000000000000000000000000000000000000000000000000000000000000000000000000000000000000000000000000000000000000000000000000000000000000000000000000000000000000000000000000000000000000000000000000000000000000000000000000000000000000000000000000000000000000000000000000000000000000000000000000000000000000000000000000000000000000000000000000000000000000000000000000000000000000000000000000000000000000000000000000000000000000000000000000000000000000000000000000000000000000000000000000000000000000000000000000000000000000000000000000000000000000000000000000000000000000000000000000000000000000000000000000000000000000000000000000000000000000000000000000000000000000000000000000000000000000000000000000000000000000000000000000000000000000000000000000000000000000000000000000000000000000000000000000000000000000000000000000000000000000000000000000000000000000000000000000000000000000000000000000000000000000000000000000000000000000000000000000000000000000000000000000000000000000000000000000000000000000000000000000000000000000000000000000000000000000000000000000000000000000000000000000000000000000000000000000000000000000000000000000000000000000000000000000000000000000000000000000000000000000000000000000000000000000054000000000000000000000000000000000000000000000000000000000000000000000000000000000000000000000000000000000000000000000000000000000000000000000000000000000000000000000000000000000000000000000000000000000000000000000000000000000000000000000000000000000000000000000000000000000000000000000000000000000000000000000000000000000000000000000000000000000000000000000000000000000000000000000000000000000000000000000000000000000000000000000000000000000000000000000000000000000000000000000000000000000000000000000000000000000000000000000000000000000000000000000000000000000000000000000000000000000000000000000000000000000000000000000000000000000000000000000000000000000000000000000000000000000000000000000000000000000000000000000000000000000000000000000000000000000000000000000000000000000000000000000000000000000000000000000000000000000000000000000000000000000000000000000000000000000000000000000000000000000000000000000000000000000000000000000000000000000000000000000000000000000000000000000000000000000000000000000000000000000000000000000000000000000000000000000000000000000000000000000000000000000000000000000000000000000000000000000000000000000000000000000000000000000000000000000000000000000000000000000000000000000000000000000000000000000000000000000000000000000000000000000000000000000000000000000000000000000000000000000000000000000000000000000000000000000000
#049321:0000132300000000
#049361:00000000005300000000000000000000
#049371:0000000000001323
#0493b1:00000000000000000000000000530000
#050361:0000132300000000
#050321:00000000005300000000000000000000
#0513b1:0000132300000000
#051371:00000000005300000000000000000000
#051361:0000000000001323
#051321:00000000000000000000000000530000
