This file was generated by Ched 2.7.0.0.
#TITLE ""
#ARTIST ""
#DESIGNER "hard"
#DIFFICULTY 0
#PLAYLEVEL
#SONGID ""
#WAVE ""
#WAVEOFFSET 0
#JACKET ""
#REQUEST "ticks_per_beat 480"
#00002: 4
#BPM01: 90
#00008: 01
#TIL00: ""
#VOLUME: ""
#HISPEED 00
#MEASUREHS 00
#01714:00140000
#0171a:14
#0011a:1414
#00114:00140000
#00212:1414
#00218:00140000
#0031a:14
#00314:00140000
#00318:0014
#00312:00000014
#00418:14
#00414:00140000
#0041a:0014
#00512:14
#00518:00140000
#00514:0014
#00510:41
#0061a:14
#00614:00140000
#00618:0014
#00712:14
#00718:00140000
#00713:0014
#00719:00000014
#00814:14
#0081a:0014
#00812:0014
#0131a:1414
#01314:00140014
#01310:41
#01418:1414
#01412:00140014
#0151a:14
#01514:00140000
#01518:0014
#01512:00000014
#0161a:14
#01614:00140000
#01618:0014
#01612:00000014
#0181a:00140000
#01814:14
#0191a:14
#01912:00140000
#01918:0014
#01914:00000014
#01910:41
#0201a:14
#02014:00140000
#02118:00140000
#02112:14
#02212:00140000
#02218:14
#02312:14
#0231a:00140000
#02314:0014
#02318:00000014
#02412:14
#02418:00140000
#0261a:14
#02617:0000001400000000
#02619:0034000000340000
#02618:00343400
#02712:14140000
#0271a:00001414
#0271f:11
#02812:14
#02815:0000001400000000
#02918:14
#02914:00140000
#0291a:0014
#02912:00000014
#03018:14
#03014:00140000
#0301a:0014
#03012:00000014
#03118:14001414
#03114:0000140000140014
#03318:00140000
#03314:0014
#03312:24
#0331f:21
#0341a:14
#03414:00140000
#03418:0014
#03410:41
#03512:14
#03516:00140014
#0351a:0014
#03612:14
#03616:00140000
#0361a:0014
#04114:00140000
#04118:0014
#0411a:24
#04212:14
#04218:00140000
#04214:0014
#0431a:14
#04316:00140014
#04312:0014
#0441a:14
#04416:00140000
#04412:0014
#03712:14
#03716:00140000
#0371a:0014
#03714:00000014
#0381a:14
#03816:00140014
#03812:0014
#0391a:14
#03914:00140000
#03918:0014
#03912:00000014
#0451a:14
#04516:00140000
#04512:0014
#04518:00000014
#04510:41
#04612:14
#04616:00140014
#0461a:0014
#04712:14
#04718:00140000
#04714:0014
#0471a:00000014
#04912:1414
#0491a:00140014
#05014:1414
#05018:00140014
#05112:1414
#0511a:00140014
#05214:14
#05218:00140000
#0481a:0014
#04818:0000000000140000
#04812:14
#04814:0014000000000000
#0401a:14
#04018:0014000000000000
#04012:0014
#04014:0000000000140000
#00918:0034
#00919:00340000
#01014:0034
#01013:00340000
#01212:0034
#01213:00340000
#0111a:0034
#01119:00340000
#02510:41
#03352:14
#03354:0064
#02657:0000002400000000
#0265a:64
#02852:54
#02855:0000002400000000
#03258:0014
#0415a:14
#04158:0054
#0485a:0064
#04858:0000000000240000
#04852:54
#04854:0024000000000000
#0405a:64
#04058:0024000000000000
#04052:0054
#04054:0000000000240000
#04254:0064
#04452:0054
#03458:0054
#0365a:0064
#03752:14
#0455a:14
#0093a0:14
#009390:00340000
#009380:00003424
#010320:14
#010330:00340000
#010340:00003424
#011380:14
#011390:00340000
#0113a0:00003424
#012340:14
#012330:00340000
#012320:00003424
#017380:00001424
#018320:00001424
#020380:00001424
#021340:00001424
#0223a0:00001424
#024340:00001424
#0253a0:14
#025390:0034000000000000
#025380:00240000
#025320:0014
#025330:0000000000340000
#025340:00000024
#0263a0:14000024
#026390:0034000000340000
#026380:00343400
#026370:0000003400000000
#028320:14000024
#028350:0000005400000000
#032380:1434343424000000
#033340:0014
#033320:00000024
#034380:0014
#0343a0:00000024
#0363a0:0014
#036380:00000024
#0403a0:14240000
#040380:0054000000000000
#040320:00001424
#040340:0000000000540000
#041380:0014
#0413a0:00000024
#042340:0014
#042320:00000024
#044320:0014
#044340:00000024
#048320:14240000
#048340:0054000000000000
#0483a0:00001424
#048380:0000000000540000
#052340:0000000014000024
