This file was generated by Ched 2.7.0.0.
#TITLE ""
#ARTIST ""
#DESIGNER ""
#DIFFICULTY 0
#PLAYLEVEL
#SONGID ""
#WAVE ""
#WAVEOFFSET 0
#JACKET ""
#REQUEST "ticks_per_beat 480"
#00002: 4
#BPM01: 77
#BPM02: 71
#00008: 01
#03708: 02
#TIL00: ""
#HISPEED 00
#MEASUREHS 00
#0001a:14
#00114:14
#00218:14
#00210:41
#00312:14
#0041a:14
#00514:14
#00618:14
#00818:00140014
#00912:00140014
#0101a:00140014
#01114:00140014
#01110:41
#01712:0016
#01718:26
#0171f:21
#01710:0041
#02112:0016
#02118:16
#01912:16
#01918:0016
#02312:16
#02318:0016
#02310:41
#02412:1616
#02518:1616
#02618:0016
#02612:26
#03018:0016
#03012:16
#02818:16
#02812:0016
#02810:41
#03218:16
#03212:0016
#03318:1616
#02712:1616
#02718:00160000
#02918:1616
#02912:00160000
#03112:1616
#03118:00160000
#0121f:11
#03412:26
#03418:00260000
#00710:41
#007320:14000024
#012380:14342400
#013340:14342400
#0143a0:14342400
#015320:14343434
#016320:24
#018380:16362600
#020320:16362600
#022380:16362600
#035320:14
#035330:0054
#036320:54
#036330:0024
#037380:14
#037390:0000000000540000
#038380:0000000000540000
#0403a0:24
