This file was generated by Ched 2.7.0.0.
#TITLE ""
#ARTIST ""
#DESIGNER ""
#DIFFICULTY 0
#PLAYLEVEL
#SONGID ""
#WAVE ""
#WAVEOFFSET 0
#JACKET ""
#REQUEST "ticks_per_beat 480"
#00002: 4
#BPM01: 77
#BPM02: 71
#00008: 01
#03708: 02
#TIL00: ""
#HISPEED 00
#MEASUREHS 00
#0121f:11
#01215:00000000000000130013000000000000
#01218:0000001313000000
#0121b:0000130000000013
#01212:13000000000000000000000000000013
#00117:0000001300001300
#0011b:00000000130000000013000000000000
#00116:00001300000000000013000000000000
#00112:00000000000000130000000013000000
#00114:0000000000000033
#00119:0000000000000033
#0001b:13000000000013000033333300001300
#00015:00000000000000130000130000333333
#00018:00000013000000000000000000000000
#00012:13
#0291b:2300231300000000
#0291a:00000014
#02912:00130000001313000000000024000000
#02915:00000013000000001300000000000000
#02918:0023000013000000
#02916:00000000000000000000001400001400
#03114:00000000001300000000000000000000
#0311b:23000000000000001300001300000013
#03117:0000001300000000
#03116:00231300
#03112:00000013000023000000000013000000
#03118:00130000000000000000000000001300
#03115:00002300000000000000000000130000
#02719:00000000001300000000000000000000
#02715:00130000000000000000000013000000
#0271b:00000013000023000000000000000000
#02717:00231300
#02716:0000001300000000
#02712:23000000000000001300001300000000
#02718:00002300000000000000000000230000
#02612:00142400
#02616:0000001400240000
#0261b:00000000000000000000000000130000
#02615:0000000000000013
#02618:00000000000000000000000000000013
#0261a:00000000240000000024000000000000
#00716:0013000000000000
#00712:13000000001300000000000026000000
#0071b:0013000000000000
#00717:13000000001300000000000000000000
#00718:0000000000000026
#00714:00330000000000000000000000000000
#00719:00330000000000000000000000000000
#00710:41
#0221b:13001313
#02217:0000001300000000
#02212:00000000000013000000001300000013
#02216:0013
#02218:00130013000000000000000000130000
#02215:0013000000000013
#00217:0000130000000013
#0021b:0000000013130000
#00219:0000001300001300
#00214:00000000000000130000001300000000
#00212:00000013001300000000000000130000
#00216:00000000000000000013000000000000
#00210:41
#00316:00000000001300000000000013000000
#0031b:00000000001300000000000013000000
#00312:0013000000000000
#00317:00131300000000000000000000000000
#00815:00000000000013001300000000130000
#00812:00000013000000000000130000000013
#00818:0000130000130013
#0081b:0000001300001300
#0081a:00000000003300330000000000000000
#00813:00000000000000000033003300000000
#01015:00000000001300230000000013000000
#0101b:00000000000013000000001300000000
#01018:00000000130000002300000000130013
#01012:00000013000000000023000000001300
#01315:0000001313000000
#01318:00000000000000130013000000000000
#01312:00000000000000000000000000000013
#0131b:0000000000000013
#01418:0000131300000013
#01415:00000000001300130000000000000013
#0141b:00000013
#01412:00000000000000000000000000130000
#01414:00000033000000000000000000000000
#01419:00330000000000000000000000000000
#0231b:00000000000000000013000000001300
#02312:23002300230023000000000000000013
#02316:00000000000000000013000000000000
#02317:0000001300000000
#02310:41
#02412:00130000000013000000130000140000
#0241b:00000000000000130000130000000000
#02415:0013
#02418:00000000000000000013000000000000
#02416:0000000000001414
#02417:00130000000000000000000000000000
#0151b:13
#01517:0013
#01514:0000131300001313
#01512:1313000013130000
#03312:00000000000000130000130014000000
#0331b:0013001300130000
#03316:1313000000002424
#03318:0013
#03315:00000000000000000013000000000000
#00912:0000130013000026
#00916:0000001300000000
#0091b:1300001300000000
#00917:0013
#00915:0013000000000000
#00918:00000026
#0351b:1313
#03518:0000130000000013
#0351a:0000000000130000
#03519:00000013
#03617:13000013
#03616:00131300
#00615:0000131300130000
#00612:00001313
#00618:00000000000000000013001300000000
#0061b:00000013000000130000000000001300
#00616:0000000000000013
#0111b:0013000000001300
#0111a:00000000130000000033333300333333
#01119:0000001300000000
#01115:00333333003333330000130000000000
#01114:00000013
#01113:0000000000000013
#01117:0013
#01112:13
#01116:00130000
#01110:41
#01712:2300000000001313
#01717:00000000000000000000000000130013
#01715:00230000000000130000000000000000
#0171f:21
#01718:0023000000000000
#0171b:00000000000000000033330000000000
#01719:00000000000000000000003300000000
#01710:0041
#01815:00130013000000000000000000230000
#01818:0013000000001300
#01812:1313
#01816:0000001300000000
#0181b:00000000000013000000001300000000
#01817:0013
#01918:1300131300001313
#01915:00000013000000000000000000000013
#01912:13000000001300130000000000130000
#00512:0000130013000013
#00518:00000000000000000013000000000000
#00515:0000000000130000
#0051b:00000000000000130000001300000000
#00517:0013000000000013
#00516:0000001300000000
#02512:00141300
#02516:0014000000001313
#02517:00000000000000130000000000000000
#02519:00000000000000000013000000000000
#02514:0000000000130000
#0251b:00000000000000000000001300131300
#02815:13000000000000000000000000000013
#02812:00000013000000000000000000130000
#02817:00130000
#02819:0000001300000000
#02814:00000000001300000000000000000000
#02816:00000000000000130000000000000000
#0281b:13
#02818:0000000000001313
#02810:41
#0201b:1313
#02015:00130000001300000000000000000000
#02018:0013130000000000
#02012:00000013000013000000000000000000
#02017:0000001300000000
#02016:00001324
#0201a:00000000000000000000001400000000
#03717:13
#0371b:00130000
#03716:00000000000000000000000000000013
#03712:0013
#00412:13000000000013000033333300001300
#0041b:13
#00415:00000013000000000000000000000000
#00418:00000000000000130000130000333333
#01612:23000014
#01616:00000024
#02116:00000000000000000000000000000013
#02118:00230000000000130000001300000000
#02112:0013
#0211b:23000000000000000013000000001300
#02115:0023000000130000
#03015:00000000000000130013000000000013
#03018:0000000000131313
#03012:00240000000000000000001300000000
#0301b:0013
#03016:0024000000000000
#0301a:24
#03217:00000000000000000013000000000000
#03212:00000000000000000013000000001300
#0321b:23002300230023000000000000000013
#03216:0000001300000000
#03416:0024000000000000
#0341a:00240000
#03817:0000000000000000000000000000000033330000000000000000000000000000
#0165b:13
#01652:13
#01257:13
#01255:00000000000000000063000000000000
#01258:0063
#01252:53
#0305a:00140000
#03056:0054000000000000
#0255a:14
#02552:00140000
#02556:0014000000000063
#0255b:0000000000000063
#03452:14
#03456:0014000000000000
#0345a:00140000
#02152:00130000
#02155:0053000000000000
#0175b:00130000
#01758:0063000000000000
#0275b:0000006300000000
#02758:00000000000000000000000000130000
#02757:0023
#02756:0000006300000000
#02752:0023
#03152:0000005300000000
#0315b:0023
#03157:0000005300000000
#03156:0023
#01855:00000000000000000000000000130000
#01852:0023
#01856:0000006300000000
#0185b:0000006300000000
#01857:0023
#00752:53000000002300000000000016000000
#00758:0000000000000016
#00756:0063000000000000
#0075b:0063000000000000
#00757:53000000002300000000000000000000
#00958:00000016
#00952:0000230023000016
#00956:0000006300000000
#0095b:6300006300000000
#00957:0023
#00955:0063000000000000
#0265a:00640000
#02656:0000002400640000
#02652:00140000
#02352:0000005300000000
#02356:00000000000000000023000000000000
#0235b:00000000000000000023000000000000
#02357:0000005300000000
#02952:0000005300005400
#0295b:0000006300000000
#0295a:00000014
#02958:0023
#02955:0023
#02956:0000000000000024
#0325b:0000006300000000
#03257:00000000000000000023000000000000
#03252:00000000000000000023000000000000
#03256:0000006300000000
#03356:0063000000005454
#0335b:0063000000000000
#00156:00000000000000000063000000000000
#00152:00000053
#00157:00000053
#0015b:00000000000000000063000000000000
#00052:13
#0225b:0023
#02257:0000005300000000
#02252:0000005300000000
#02256:0023
#02456:0000000000000054
#02452:00530000000000000000000000000000
#02457:00530000000000000000000000000000
#0155b:63
#01557:0023
#03657:53
#03656:0063
#00352:0053000000000000
#00356:00000000002300000000000000000000
#00357:0053000000000000
#0035b:00000000002300000000000000000000
#01157:0053
#0115b:00000023
#01152:53
#01156:00230000
#01958:13
#0085b:0000002300000000
#00852:0000000000230000
#00855:0063
#00858:00530000
#02855:13
#03757:53
#0375b:00230000
#03756:00000000000000000000000000000023
#03752:0053
#00557:0000000000000053
#00552:0000000000000053
#0045b:13
#01358:00000000000000000053000000000000
#01355:0053
#01455:00000000000000630000000000000000
#01458:0000006300000000
#02052:0000005300000000
#02057:0000005300000000
#0205b:0023
#02056:0023
#000350:0000132300000000
#0003b0:00000000000000001333333300000000
#000380:00000023
#000351:00000000000000000000000013333333
#001321:23
#001370:13
#0013b0:0023000000000000
#001360:00130000
#001320:0000002300000000
#0013b0:00000000000000001333000000000000
#001370:00000033
#001390:0000000000000033
#0023b0:23
#001361:00000000000000000013000000000000
#001321:00000033
#001341:0000000000000033
#002361:23
#002321:00000000000000000000000000000013
#003321:0033000023000000
#003361:00000000005300000000000000000000
#003370:0013000023000000
#0033b0:00000000005300000000000000000000
#004380:0000132300000000
#004320:00000000000000001333333300000000
#004350:00000023
#004381:00000000000000000000000013333333
#0053b1:23
#005360:13
#005320:0023000000000000
#005370:00130000
#0053b0:0000002300000000
#005320:0000000000001333
#006360:23
#005371:0000000000000013
#0063b1:23
#007321:13000000005300000000000000000000
#007341:00330000000000000000000000000000
#007361:0033000023000000
#007370:13000000005300000000000000000000
#007390:00330000000000000000000000000000
#0073b0:0033000023000000
#008380:00132300
#0083a0:00000000003300330000000000000000
#0083b0:0000003300000000
#008351:00001323
#008331:00000000000000000033003300000000
#008321:0000000000330000
#0093b1:13
#009381:0023000000000000
#009350:0013000000000000
#009320:00535300
#009360:0000003300230000
#0093b1:0000001300230000
#009371:0053
#011321:1323
#011351:00333333003333330000000000000000
#011361:00330000
#011370:0013
#0113a0:00000000000000000033333300333333
#0113b0:00000033
#012370:23
#012321:13
#012361:00230000
#012381:0013
#0123b1:00000023
#012350:00000000000000000013000000000000
#012320:00000023
#013380:13
#0133b0:0023000000000000
#013321:0013000000000000
#013351:00230000
#0133b0:00130000
#013380:0000002300000000
#013350:0013
#013320:00000023
#013381:00000000000000000013000000000000
#0133b1:00000023
#0143b1:13
#014391:00330000000000000000000000000000
#014381:0023000000000000
#014320:0013000000000000
#014340:00000033000000000000000000000000
#014350:00230000
#014380:0000001300000000
#0143b0:0000000000230000
#014351:00000000000000130000000000000000
#014321:0000000000230000
#0153b1:13
#015371:0053
#0163b1:23
#016361:00000014
#0173a1:24
#017381:0013000000000000
#0173b1:00230000
#0173b1:00000000000000001333330000000000
#017391:00000000000000000000003300000000
#017371:00000023
#0183b1:00000000133333000000230000000000
#018371:0053
#018360:0000001300230000
#018320:0053
#0193b0:0000000013230000
#019351:0000000000132300
#020321:0000001300230000
#020361:0053
#020370:0000001300230000
#0203b0:0053
#020360:00000014
#021320:24
#021350:0013000000000000
#021320:00230000
#021320:00000013
#021360:0000000000000023
#022320:00000000133333000000230000000000
#022360:0053
#022371:0000001300230000
#0223b1:0053
#023371:1300003300002300
#0233b1:00000000000000000053000000000000
#023320:0000001300002300
#023360:00000000000000000053000000000000
#024370:13330000000000000000000000000000
#0243b0:00230000
#024321:00130000000000000000000000000000
#024361:00230000
#024361:0000000000000014
#0253a1:24
#0253b1:0000000000000013
#026371:0023000000000000
#025360:0000000000000013
#026320:0023000000000000
#0263a0:00142400
#026360:0000005400000000
#026360:0000000000140000
#026320:00000024
#027320:00135300
#027340:00000000003300000000000000000000
#027360:0000003300230000
#0273b1:0000001300230000
#027371:0053
#0283b1:0013
#028381:0000000000230000
#028350:0000000000130000
#028320:00000023
#029320:0000001300230000
#029350:0053
#0293b1:0000001300230000
#029381:0053
#029321:00000014
#029361:0000000000000054
#030321:24
#030361:0014000000000000
#0303a1:00240000
#030351:0000000000001323
#0313b1:00135300
#031391:00000000003300000000000000000000
#031371:0000003300230000
#031320:0000001300230000
#031360:0053
#032360:1300003300002300
#032320:00000000000000000053000000000000
#0323b1:0000001300002300
#032371:00000000000000000053000000000000
#0333b1:00133300000000000000000000000000
#033371:00230000
#033360:0013000000000000
#033320:00230000
#033360:00000014
#0333a0:0000000000000024
#033361:0000000000000014
#034321:24
#035351:13
#036321:23
#036370:13
#0363b0:00332300
#036361:0013
#036321:00000033
#037321:23
#037370:1323
#0373b0:00530000
#037321:0013
#037361:00000000000000000000000000000033
#038321:00000000002300000000000000000000
#038370:0000000000000000000013000000003333330000000000000000000000000000
#0403b0:23
