This file was generated by Ched 2.7.0.0.
#TITLE ""
#ARTIST ""
#DESIGNER ""
#DIFFICULTY 0
#PLAYLEVEL
#SONGID ""
#WAVE ""
#WAVEOFFSET 0
#JACKET ""
#REQUEST "ticks_per_beat 480"
#00002: 4
#BPM01: 77
#BPM02: 71
#00008: 01
#03708: 02
#TIL00: ""
#HISPEED 00
#MEASUREHS 00
#00018:00000013000013000000001300000000
#00015:00000000130000130000130000333300
#0001b:1313
#00012:13
#00218:00000013001300000000000013001300
#0021b:00000000000000130000130000000000
#00212:00000000000000001300000000130013
#00215:00000000130013000000001300000000
#00210:41
#0081a:00000000000000000000000000130000
#00813:0000000000000013
#00819:00000000000000000000000000000013
#00815:0000000000130000
#0081b:00000000000000000000001300000000
#00814:00000013
#00818:00000000000000130013000000000000
#00812:0013
#0101b:00000000130000000023000013000000
#01015:00000000000013000000001300130000
#01012:00000013000000002300000000000013
#01018:00000000000000230000000000001300
#01215:00000000000000130013000000000013
#01218:1300001313000013
#01212:13
#0121f:11
#01318:00000000000000130013000000000013
#01315:0000000013000013
#01418:00000013001300000000000000001300
#0141b:0000001300001300
#01415:00000000130000130000000000130000
#01412:00000000000000000000000000000013
#02315:0000230000000013
#02317:00000000000000000013000000000000
#02318:0023000000000000
#0231b:2300002300000000
#02310:41
#0241b:1300001300000000
#02415:00130000000000130013000000000000
#02418:0000000013130000
#02412:00000014
#0241a:00000000000000000000000000140000
#02416:0000000000000014
#00118:13000000000000130000000000000000
#00115:00000000130000000013000000000000
#00112:0000001300001300
#0011b:0013000000000000
#00113:0000000000000033
#0151a:14
#01516:0014
#0091b:0000001300000000
#00918:0000000013000026
#00912:13000026
#00915:0033000000000000
#00318:00130000000000000000000000000000
#00315:0013000000000000
#00312:00000000000000130000000000000000
#00615:00000013000000000000130000000000
#0061b:0000130000000013
#00618:00000000000000130000000000000000
#00612:00000000000013001333003300000000
#00718:0013000000000026
#0071b:13000000001300000000000000000000
#00712:00000026
#00719:00330000000000000000000000000000
#00710:41
#01118:00333300000013000000000000000000
#0111b:13
#01115:00000000001300130000000000000000
#01112:0000000000000000000000000000000033003300331333003300330000000000
#01110:41
#01815:00130000000000000000001300230000
#01819:0013000000000000
#0181a:00130000
#01818:13000013
#0181b:0000001300000000
#01814:00000013000000000000000000000000
#01813:00000000001300000000000000000000
#02215:13000000000000000000000000130000
#02212:00000000000013000000000000000013
#02218:00130000000000000000001300001300
#02214:0013000000000000
#02213:00130000
#0221b:00000013
#02219:00000013000000000000000000000000
#0221a:00000000001300000000000000000000
#02512:0000140000130013
#02516:0014000000000000
#0251b:00000000000000130000001300000000
#02515:00001313
#02518:00000000000000000013000000130000
#0251a:14
#01918:00000013000013000000000000001300
#01915:00000000130000130000000000000013
#0191b:00000000001300000000000000000000
#01912:00000000000000000000000000130000
#0201b:13
#02016:00130000000000000000000000000000
#0201a:0013000000000000
#02015:00000013000000000000000000000000
#02019:00130000
#02014:00000000001300000000000000000000
#02018:0000001300000000
#02012:00000024
#03512:00331333
#03515:13
#03112:23230013
#0311b:00130000001300000000000000000013
#03115:0023002300000013
#03118:00000013000000000000001300130000
#00415:00000013000013000000001300000000
#0041b:13000000000000000013000000000000
#00418:00000000130000130000000000333300
#00412:1313
#00515:13000000000000130000000000001300
#00518:00131300
#0051b:00000000000013000000003300001300
#00512:0013000000000000
#0051a:0000000000330000
#00519:00000000000000000033000000000000
#01712:2424000013000000
#01715:0000000000000000000000000000000000003300330033133300330033000000
#01718:00000000000000130000000000000000
#01716:00240000000000000000000000000000
#0171f:21
#01710:0041
#0211b:0013
#02118:0000000000000000000000000000000000003300330033133300330033000000
#02115:00000000000000130000000000000000
#0211a:2424000000000000
#02116:00240000000000000000000000000000
#02615:00000000000000000000000000130013
#02618:0000000000000013
#0261a:0000240000240000
#02612:0024
#02616:00000000000000000024000000000000
#02712:00130000001300000000000000000000
#02715:00000013000000000000001300130000
#02718:0023002300001300
#0271b:23230000
#03018:00000000000000130000000000000013
#03015:00000000000000000000001300000000
#0301a:24
#03016:00240000000000000000000000000000
#03012:0024000000000000
#02916:00000000000000000000001400000000
#02917:00130000000000000000000000000000
#02918:00000013000000000000000000000000
#02919:00000000001300000000000000000000
#02915:0000001300000000
#02912:23000024
#02913:0023000000000000
#02914:00230000
#02818:00000013000000000000000000000013
#02812:00130000
#0281b:00000000000013000000000000130000
#02815:00000000000000130000000000001300
#02810:41
#03218:0000230000000013
#03216:00000000000000000013000000000000
#03215:00002300000000000000000000000013
#03212:2300002300000000
#03318:13001300000000000013000000000000
#03315:00130000000013000000130000000000
#03315:0000000000130000
#0331a:00000024
#03316:0000000000000024
#0361b:00331333
#03618:13
#03715:13
#03712:0000001333000000
#03714:00000000000000000000000000000033
#03814:13
#03815:0000000000000000000000000000000033330000000000000000000000000000
#0341a:00240000
#03412:24
#03416:0024000000000000
#0161a:00000024
#0155a:64
#01556:0024
#0095b:0000006300000000
#00952:53000016
#00958:0000000023000016
#00152:00000053
#00155:00000000000000000063000000000000
#00355:0063000000000000
#00352:00000000000000230000000000000000
#00758:0053000000000016
#0075b:63000000002300000000000000000000
#00752:00000016
#02552:0000140000000063
#0345a:00140000
#03552:0023
#03555:53
#0165a:14
#0185b:0000005300000000
#01855:00000000000000000000000000130000
#02455:00630000000000000000000000000000
#0115b:63
#01155:00000000000000630000000000000000
#01152:0000000000000000000000000000000000000000002300000000000000000000
#01252:53
#01258:53
#01255:00000000000000000063000000000000
#01358:00000000000000000053000000000000
#01455:00000000000000630000000000000000
#02058:0000005300000000
#00558:0053
#0055b:0000000000000063
#00555:0000000000000063
#00652:0063
#00655:0000000000230000
#01752:0063
#01755:0000000000000000000000000000000000000000000000230000000000000000
#02252:0000006300000000
#0215b:0053
#02158:0000000000000000000000000000000000000000000000230000000000000000
#02357:00000000000000000023000000000000
#0235b:0000006300000000
#02755:00000000000000000000000000130000
#02758:0000006300000000
#03358:0053000000000000
#03355:0000006300000000
#03256:00000000000000000023000000000000
#03252:0000005300000000
#0365b:0023
#03658:63
#03755:53
#03752:0000002300000000
#03854:53
#0265a:00540000
#02952:00000064
#02955:0000006300000000
#03155:0000005300000000
#000350:00000000000000000000000013333300
#000320:00000000000000000000000000000023
#001350:00000000000000001333000000000000
#001320:00000033
#001330:0000000000000033
#002350:23
#003350:0013000000002300
#003320:00000000000000530000000000000000
#004380:00000000000000000000000013333300
#0043b0:00000000000000000000000000000023
#005380:0013
#005390:00000000000000000033000000000000
#0053a0:0000000000330000
#0053b0:00000000000000000000003323000000
#005350:0000000000000013
#006320:23
#0053b1:0000000000000013
#006381:23
#006321:00000000000000001333003323000000
#006351:0000000000330000
#0073b1:13000000005300000000000000000000
#007391:00330000000000000000000000000000
#007381:0033000023000000
#008321:00000013000000000000000000000000
#008331:00330000
#008341:00000000003300000000000000000000
#008351:0000002300000000
#009321:13
#009351:0033230000000000
#0093b1:0000001300230000
#009381:0053
#0113b1:13
#011381:00333323000000000000000000000000
#011351:00000000000000130000000000002300
#011321:0000000000000000000000000000000033003300335333003300330000000000
#012321:13
#012351:00230000
#012380:13
#0123b0:00230000
#012350:00000000000000000013000000000000
#012320:00000023
#013380:13
#0133b0:0023000000000000
#013350:00130000
#013320:0000002300000000
#013380:00000000000000000013000000000000
#0133b0:00000023
#014350:13
#014320:0023000000000000
#014350:00000000000000130000000000000000
#014320:0000000000230000
#0153a0:14
#015360:0054
#0163a0:24
#0163a0:00000014
#016360:00000000000000000000000000000024
#017320:0014240000000000
#017320:00000000000000001300000000000023
#017350:0000000000000000000000000000000000003300330033533300330033000000
#0183b0:0000001300000000
#018380:0000000000230000
#0193b0:00001323
#019380:0000000000330000
#020380:0000001300000000
#0203b0:0000000000230000
#020320:00000014
#020360:00000000000000000000000000000024
#0213a0:0014240000000000
#0213b0:00000000000000001300000000000023
#021380:0000000000000000000000000000000000003300330033533300330033000000
#022320:0000001300000000
#022350:0000000000230000
#0233b0:0000001300002300
#023370:00000000000000000053000000000000
#024350:00130000000000000000000000000000
#024320:00230000
#025320:0000000000000013
#026360:0023000000000000
#0263a0:00140000
#026360:00000000000000240000000000000000
#0263a0:0000000000142400
#027380:0000001300000000
#0273b0:0000000000230000
#028320:00001323
#028350:0000000000330000
#029350:0000001300000000
#029320:0000000000230000
#029320:00000014
#029360:00000000000000000000000000000024
#030320:0014240000000000
#030320:0013
#030350:0000000000230000
#0303b0:00000013
#030380:0000000000000023
#031350:0000001300000000
#031320:0000000000230000
#032320:0000001300002300
#032360:00000000000000000053000000000000
#033380:0013000000000000
#0333b0:00230000
#033350:0000001300000000
#033320:0023
#035350:13
#035320:00333333
#036350:23
#036381:13
#0363b1:00333333
#037381:23
#037350:13
#037320:0000005333000000
#037340:00000000000000000000000000000033
#038340:53
#038350:0000000000000000000033000000003333330000000000000000000000000000
#040320:23
