This file was generated by Ched 2.7.0.0.
#TITLE ""
#ARTIST ""
#DESIGNER ""
#DIFFICULTY 0
#PLAYLEVEL
#SONGID ""
#WAVE ""
#WAVEOFFSET 0
#JACKET ""
#REQUEST "ticks_per_beat 480"
#00002: 4
#BPM01: 77
#BPM02: 71
#00008: 01
#03708: 02
#TIL00: ""
#HISPEED 00
#MEASUREHS 00
#00117:12001200120012000012000012001200
#0011c:00000000120000120000000012000000
#00119:0012
#00112:12000000000000000012000000001200
#00114:0012
#00219:00120000
#00218:00000000000012000000000000120000
#0021a:00000000000000120000000000001200
#0021c:00000012000000000000000000000000
#0021b:00000000001200000000000000000000
#00212:0000000012000012
#00215:00000000000000000012000000000000
#00216:00000000000000000000001200000012
#00214:00000012
#00213:0000000000120000
#00210:41
#00818:00000013000013000013130000130000
#0081b:00000000130000001300001313001300
#00812:00000000001313000000130000001300
#00815:00000000130000131300000013000013
#01212:13000000000013001313000000001300
#0121b:00000000130013001313000000001300
#01216:0013000000000000
#01219:0013000000000000
#01218:00000000000000130000000000000013
#0121f:11
#01318:00000000000000000000000000000013
#01315:00000000000000130000000000001300
#01317:00000013000000000000000000000000
#01312:13001300000013001313000000000000
#0131b:13000000130000001313000000000000
#01316:00130000001300000000000000000000
#01519:0013001300130013
#01512:00130013
#01516:1313
#0151b:1313
#01514:0013001300130013
#01517:00130013
#00912:13000013000000001300000014002400
#00917:0013001300000000
#0091b:1300131300000000
#00916:00130000000000001300000000000000
#0091a:0000000000002414
#0351a:0000120000120012
#0351c:0012
#03518:00000012
#03512:12
#03517:0012
#0361c:12120000
#03617:0012120000121200
#03612:00001212
#00317:0012000000000000
#00312:00121200000000120000000012000000
#0031a:0000000000120000
#00316:00000000000000000000001200000000
#00314:0000001200000012
#00318:00000000000000000000000000000012
#00315:00320000
#00313:00000032000000000000000000000000
#00712:0012000000002414
#00717:00120000
#0071c:00120000001200001200000000000000
#00718:12000012000012000000000000000000
#0071a:00000000120000120000000014002400
#00716:00000000000000000000141400000000
#00710:41
#0101b:0000131323001300
#01012:0000000000001300000000130000230000002300000013000000000000000000
#01019:00000000000000000000000000130000
#01017:0000000000000013
#01015:00000000000000000000000000000013
#01016:00000000130000242424001313000000
#01816:0000000000000000000013000000000013000000000000001400000000130000
#0181b:13001300130013000000001300130000
#01812:13000000130000001300001300230000
#01818:00130013000000000000000000000000
#01815:0013000000000000
#01817:0000001300000000
#02219:0000000000000013
#02216:00000000000013000000001300000013
#02215:00130013000000000000000013000000
#02217:00000000001300001300000000130000
#02212:13001300130013000000001300130000
#0221b:1300000000000000130000000000000013000000000000001300000000001313
#02214:0000000000000013
#02218:0013000000000000
#01912:13000013000000001300130000130000
#01915:0000131300000013
#01918:00000000001300130000000000000013
#0191b:0000131300001300
#01916:0013
#00616:0000120000000012
#00618:00000012000012000000000000001200
#0061a:00000000000000120000001200000000
#00614:00000000000000000012000000000000
#0061c:00120012
#00612:00000000000000000000000000000012
#0141b:13001300000013130000000000000000
#01412:00130013001313130000130000001300
#01415:1313130000000000
#01416:00130013000000001300000013000000
#01414:00000000000000000000000000130000
#01419:00000000000000000000000000000013
#01417:000000000000000000000000000000000000000000000000000000000000000000000000000000000000000000000000000000000000000000000000000000000000000000000000000000000000000000000000000000000000000000000000000000000000000000000000000000000000000000000000000000000000000000000000000000000000000000000000000000000000000000000000000000000000000000000000000000000000000000000000000000000000000000000000000000000000000000000000000000000000000000000000000000000000000000000000000000000000000000000000000000000000000000000000000000000000000000000000000000000000000000000000000000000000000000000000000000000000000000000000000000000000000000000000000000000000000000000000000000000000000000000000000000000000000000000000000000000000000000000000000000000000000000000000000000000000000000000000000000000000000000000000000000000000000000000000000000000000000000000000000000000000000000000000000000000000000000000000000000000000000000000000000000000000000000000000000000000000000000000000000000000000000000000000000000000000000000000000000000000000000000000000000000000000000000000000000000000000000000000000000000000000000000000000000000000000000000000000000000000000000000000000000000000000000000000000000000000000000000000000000000000000000000000000000000000000000000000000000000000000000000000000000000000000000000000000000000000000000000000000000000000000000000000000000000000000000000000000000000000000000000000000000000000000000000000000000000000000000000000000000000000000000000000000000000000000000000000000000000000000000000000000000000000000000000000000000000000000000000000000000000000000000000000000000000000000000000000000000000000000000000000000000000000000000000000000000000000000000000000000000000000000000000000000000000000000000000000000000000000000000000000000000000000000000000000000000000000000000000000000000000000000000000000000000000000000000000000000000000000000000000000000000000000000000000000000000000000000000000000013000000000000000000000000000000000000000000000000000000000000000000000000000000000000000000000000000000000000000000000000000000000000000000000000000000000000000000000000000000000000000000000000000000000000000000000000000000000000000000000000000000000000000000000000000000000000000000000000000000000000000000000000000000000000000000000000000000000000000000000000000000000000000000000000000000000000000000000000000000000000000000000000000000000000000000000000000000000000000000000000130000000000000000000000000000000000000000000000000000000000000000000000000000000000000000000000000000000000000000000000000000000000000000000000000000000000000000000000000000000000000000000000000000000000000000000000000000000000000000000000000000000000000000000000000000000000000000000000000000000000000000000000000000000000000000000000000000000000000000000000000000000000000000000000000000000000000000000000000000000000000000000000000000000000000000000000000000000000000000000000000000000000000000000000000000000000000000000000000000000000000000000000000000000000000000000000000000000000000000000000000000000000000000000000000000000000000000000000000000000000000000000000000000000000000000000000000000000000000000000000000000000000000000000000000000000000000000000000000000000000000000000000000000000000000000000000000000000000000000000000000000000000000000000000000000000000000000000000000000000000000000000000000000000000000000000000000000000000000000000000130000000000000000000000000000000000000000000000000000000000000000000000000000000000000000000000000000000000000000000000000000000000000000000000000000000000000000000000000000000000000000000000000000000000000000000000000000000000000000000000000000000000000000000000000000000000000000000000000000000000000000000000000000000000000000000000000000000000000000000000000000000000000000000000000000000000000000000000000000000000000000000000000000000000000000000000000000000000000000000000
#01418:00000000001300000000000000000000
#02514:00000000000000130013000000130000
#02519:00000000000000130013001300000000
#02517:00000000000000000000000000000013
#02512:1400140013000013
#0251b:0000000013001313
#0251a:1414000000000000
#02516:00140014000000000000140013000000
#0301b:00000000130000001313000000000000
#03018:00000000000000000000130000000013
#03016:00240000000000000000000000001300
#03014:00000000000000000000000000130000
#03017:00000000000000131300000000000000
#03012:24002400000000130000000013000000
#03015:00000000000000000000001300000000
#0301a:2424000000000000
#02317:00132300001300000013000000001300
#0231b:00000013000000000013000000000000
#02312:2300231300000013
#02319:00000000000000000000000000000013
#02316:0000001300000000
#02310:41
#03712:00000000120000000012000000000000
#03713:000000000000000000000000000000000000000000000012000000000000000000000000000000000000000000000000
#03714:000000000000000000000000000000000000001200000000000000000000000000000000000000000000000000000000
#0371b:000000000012
#0371a:000000000000000000000000000000000000000000000000000000000000000000000012000000000000000000000000
#0371c:12000000000000000000000000000012
#03717:0000000000000000001200000000000000000000000000000000000000001200
#03812:00000000001200000000000000000000
#03817:00000000001200003200000000000000
#03816:000000000000000000000000000000000000000000000032001300000000000000000000000000000000000000000000
#0381b:000000000000000000000000000000000000000000000000321300000000000000000000000000000000000000000000
#03815:000000000000000000000032000000000000000000000000
#0381a:000000000000000000000000000000000000000000000032000000000000000000000000000000000000000000000000
#03819:000000000000000000000032000000000000000000000000
#01116:0000000013000013
#0111b:13000000001300000000130000131300
#01118:00130013000000000013000013000000
#01115:00001300000000000000001300000000
#01112:1300001300131300
#01114:00000000000000130000000000000000
#01117:00000000000013000000000000000013
#01110:41
#0241a:00000014
#0241b:00130000000000130000130000000000
#02417:0000000000130000000000001300130013000000000000000000000000000000
#02412:0000000000130000000000001300000013000000000000001400000000000000
#02416:13130000000000000000130000001400
#02419:00000000000000000013000000000000
#02414:00000000000000000013000000140000
#02418:00000000000000000000000000000014
#02618:00130000000000000000000000001300
#02615:13000000000014000000000000130013
#02616:00000013000000000024000000000000
#0261b:00001300000000000000000000130000
#02612:0013000024241300
#0261a:0000240000240000
#02715:00130000000023000000000000000000
#02716:00000013000000001300131300000000
#02717:00000000001300000000000000230000
#0271b:00000000000023000000001300000000
#02719:00000013
#02714:00000000230000000013000013000000
#02712:23000000000000001300000000230000
#02713:0023000000000000
#0281b:13000013000013001300000000130000
#02817:0000131313000000
#02816:13000000001300130000130013000000
#02812:00000000130000130000000000000000
#02818:0000000000000013
#02815:00000000000000000000000000000013
#02810:41
#02912:130000000000130000000000000000000000130000000000000000130000000000140000000000000000000014000000
#02917:00000000000000130000000000000000
#02915:00130013230000000000000000000000
#02918:00002300001300000000000000001400
#0291b:23000000130013001313000000000000
#0291a:000000000000000000000000000000000000000000000000000000000000000000140000000014000000000000000000
#02916:000000000000000000000000000000000000140000000014
#02914:000000000014
#03118:000000130000000000000000000000000000230000000000000000000000000000001300130000000000000000000000
#03117:00000013000000001300130000000013
#03116:00000000001300000000000000130000
#03114:0000000000000013
#03115:000000000000000000000000000000000000000000000000000000000000000000130013000000000000000000000000
#0311b:23000000000000001300000000130000
#03119:00000000230000000013000000001300
#03112:0000000000000000000000002300000000000000000000000000000000001313
#0311a:0023000000000000
#03416:00140014000000000000000000000000
#03412:2424000000000000
#0341a:24
#02018:00130000130000000000001300000000
#02015:1300000000001300000013000000000000000000130000130000000000000000
#02012:00001300130013001313000013131300
#0201b:13001300000013000013000000000000
#02016:00000000000000130000000000001400
#0201a:00000024
#03319:00000000000000000000000000000014
#03316:0000000013000000000000000000000000000000130014140000000000000014
#03315:0000000000000000000000000000000000000000000000000000000000140000
#03314:0000000000000000000000000000000000000000000000000000001400000000
#03318:0000000000000014
#03317:13000000000000000000000000140000
#03312:00001300000013001313130024000000
#03312:0013000000000000
#0331b:13130000000013131300000000000000
#0331a:00000024
#0001c:00121200
#00018:0000001200000000
#00012:12000012
#00014:00001200000000120012001200001200
#0001a:00000012000000000000120000120012
#00017:00001212
#00514:00000000000000120000001200000000
#00512:00121212
#00517:1212121200001212
#0051c:1200000000120012
#00518:0012
#00516:0000000000120000
#0051a:00000000000000000012000000000000
#0161a:00000000000000000000000000140014
#01616:2300000000001414
#01612:00000024
#01716:00241414000000000013130000000000
#01712:00002400000000131300001313001300
#0171a:24000014000000000000000000000000
#01715:00000000000000000000000000130013
#01718:0000000000000013
#0171b:00000000000000130000000013000000
#0171f:21
#01710:0041
#02116:00241414000000000000000000000000
#0211b:00000000000000131300001313001300
#02112:24000014000000130000000013000000
#02118:00000000000000000000000000130013
#02115:0000000000000013
#02117:00000000000000000013130000000000
#0211a:0024000000000000
#03212:00000013000000000013000000001313
#03216:00132300001300000013000000001300
#0321b:2300231300000000
#03217:0000001300000000
#00412:00121200
#00416:0000001200000000
#0041c:12000012
#0041a:00001200000000120012001200001200
#00414:00000012000000000000120000120012
#00417:00001212
#01559:0063005300630053
#0155b:2323
#01557:00230023
#00957:0063006300000000
#0095b:6300006300000000
#00952:00000023000000002300000034003400
#00956:00230000000000002300000000000000
#0095a:0000000000004444
#0365c:52520000
#03657:0022000000220000
#03652:00006262
#00357:0052000000000000
#00352:0052000000000000
#00752:0062000000003434
#00757:00220000
#00758:62
#0075c:00220000000000000000000000000000
#0075a:0000000000004444
#00157:62000000620000000062000062006200
#00152:00000000000000000062000000006200
#0015c:00000062
#00656:0000000000000062
#00652:12000000000000000000000000000022
#00657:12
#01252:63000000000000000053000013000000
#01256:0023000000000000
#0125b:43000000000000000063000013000000
#01452:00000000000000530000000000000000
#0145b:53005300000000530000000000000000
#01456:00230023000000002300000000000000
#01457:000000000000000000000000000000000000000000000000000000000000000000000000000000000000000000000000000000000000000000000000000000000000000000000000000000000000000000000000000000000000000000000000000000000000000000000000000000000000000000000000000000000000000000000000000000000000000000000000000000000000000000000000000000000000000000000000000000000000000000000000000000000000000000000000000000000000000000000000000000000000000000000000000000000000000000000000000000000000000000000000000000000000000000000000000000000000000000000000000000000000000000000000000000000000000000000000000000000000000000000000000000000000000000000000000000000000000000000000000000000000000000000000000000000000000000000000000000000000000000000000000000000000000000000000000000000000000000000000000000000000000000000000000000000000000000000000000000000000000000000000000000000000000000000000000000000000000000000000000000000000000000000000000000000000000000000000000000000000000000000000000000000000000000000000000000000000000000000000000000000000000000000000000000000000000000000000000000000000000000000000000000000000000000000000000000000000000000000000000000000000000000000000000000000000000000000000000000000000000000000000000000000000000000000000000000000000000000000000000000000000000000000000000000000000000000000000000000000000000000000000000000000000000000000000000000000000000000000000000000000000000000000000000000000000000000000000000000000000000000000000000000000000000000000000000000000000000000000000000000000000000000000000000000000000000000000000000000000000000000000000000000000000000000000000000000000000000000000000000000000000000000000000000000000000000000000000000000000000000000000000000000000000000000000000000000000000000000000000000000000000000000000000000000000000000000000000000000000000000000000000000000000000000000000000000000000000000000000000000000000000000000000000000000000000000000000000000000000000000000000023000000000000000000000000000000000000000000000000000000000000000000000000000000000000000000000000000000000000000000000000000000000000000000000000000000000000000000000000000000000000000000000000000000000000000000000000000000000000000000000000000000000000000000000000000000000000000000000000000000000000000000000000000000000000000000000000000000000000000000000000000000000000000000000000000000000000000000000000000000000000000000000000000000000000000000000000000000000000000000000000530000000000000000000000000000000000000000000000000000000000000000000000000000000000000000000000000000000000000000000000000000000000000000000000000000000000000000000000000000000000000000000000000000000000000000000000000000000000000000000000000000000000000000000000000000000000000000000000000000000000000000000000000000000000000000000000000000000000000000000000000000000000000000000000000000000000000000000000000000000000000000000000000000000000000000000000000000000000000000000000000000000000000000000000000000000000000000000000000000000000000000000000000000000000000000000000000000000000000000000000000000000000000000000000000000000000000000000000000000000000000000000000000000000000000000000000000000000000000000000000000000000000000000000000000000000000000000000000000000000000000000000000000000000000000000000000000000000000000000000000000000000000000000000000000000000000000000000000000000000000000000000000000000000000000000000000000000000000000000000000000000000000000000000000000000000000000000000000000000000000000000000000000000000000000000000000000000000000000000000000000000000000000000000000000000000000000000000000000000000000000000000000000000000000000000000000000000000000000000000000000000000000000000000000000000000000000000000000000000000000000000000000000000000000000000000000000000000000000000000000000000000000000000000000000000000000000000000000000000000000000000000000000000000000000000000000000000000000000000000000
#02357:00235300002300000023000000000000
#0235b:00000023000000000023000000000000
#02352:5300535300003300
#02356:0000005300003300
#03852:00000000006200000000000000000000
#03857:00000000006200000000000000000000
#0385b:000000000000000000000000000000000000000000000000002300000000000000000000000000000000000000000000
#03856:000000000000000000000000000000000000000000000000002300000000000000000000000000000000000000000000
#01656:3300000000000024
#0165b:43
#01652:00000064
#01856:0000000000000000000023000000000023000000000000000000000000230000
#0185b:00000000530063000000000000530000
#01852:00000000000000002300000000330000
#01857:0000006300000000
#02557:00000000000000000000000000000023
#02552:5434340000000000
#02556:00240024000000000000000000000000
#0255a:4464440000000000
#0255b:0000000000000053
#02656:00000023000000000000000000000000
#02652:0053330000001300
#02655:0000002400001400
#0265a:0000640000640000
#02752:00000000000000000000000000330000
#02756:0023
#0275b:0000006300000000
#02757:00000000000000000000000000330000
#02952:0000006300000000
#02957:00000000000000230000000000000000
#03456:00240024000000000000000000000000
#03452:3454340000000000
#0345a:5444000000000000
#03052:0054000000000000
#0305b:00130000
#03057:00140000
#00052:12
#01357:00000023000000000000000000000000
#01352:00006300000000000053000013000000
#0135b:63000000630000000063000013000000
#01356:00230000002300000000000000000000
#01952:0000000000530000
#01956:0053
#0195b:43
#02856:4300000000530000
#02857:0063
#0285b:43
#0205b:0000005300000000
#02056:00000000000000230000000000002400
#0205a:00000054
#03157:0023
#03152:0000005300000000
#0245b:00630000430000000000130000000000
#02457:0000000000230000000000000000000000000000000000000000000000000000
#02452:0000000000230000000000000000000000000000000000000000000000000000
#02456:00630000430000000000130000000000
#03356:0053000000130000
#03352:0053005300130000
#03357:63130000
#0335b:00136300
#03552:52
#03557:0062
#0375c:62000000000000000000000000000052
#03752:00000000000000000052000000000000
#03757:0000000000000000002200000000000000000000000000000000000000005200
#00557:5200520000005252
#0055c:0000000000000052
#00552:00000052
#0105b:00530000
#0115b:0000000000000053
#01157:00000000000000000000000000000023
#01752:3454340000000000
#01756:00005424340000000000000000000000
#0175a:44000024000000000000000000000000
#02156:00006424440000000000000000000000
#02152:34000024000000000000000000000000
#0215a:4464440000000000
#03256:00236300002300000023000000005300
#03252:00000023000000000023000000000000
#0325b:6300636300004300
#03257:0000006300004300
#00257:12
#0025c:12
#0045c:12
#02257:00000000002300002300000000000000
#02252:0000635300000000
#0225b:0023
#02256:0000005300000000
#000380:1222000000000000
#000360:00120000
#000320:0000002200000000
#001370:12
#0013c0:0022000000000000
#001370:00120000
#001320:0000002200000000
#001370:00000000000000000012000000000000
#0013c0:00000000000000000000002200000000
#001321:00000000000000000012000000000000
#001371:00000000000000000000002200000000
#0013c1:00000012
#001371:0000000000000032
#0023c1:22
#001370:00000012
#001320:0000000000000032
#002370:22
#002320:00000012000000000000000000000000
#002360:00000000000000220000000000000000
#0023c0:0012
#002380:00000022
#0023c0:00000000000000000000000000000012
#003370:00220000000000000000000000000000
#003370:0012000000000000
#0033c0:0022
#003321:0012000000000000
#003331:00000032000000000000000000000000
#003351:00320000
#003361:00000000002200000000000000000000
#003361:0000000012220000
#003381:0000000000001222
#004361:1222000000000000
#004381:00120000
#0043c1:0000002200000000
#005371:12
#005321:0022000000000000
#005371:00120000
#0053c1:0000002200000000
#005321:00000012
#005371:0000000000000032
#006321:22
#005370:00000012
#0053c0:0000000000000032
#006370:22
#006320:0000001200000000
#006360:0022
#0063c1:0012
#006381:0000000000220000
#006320:0000000000120000
#006360:00000022
#006360:0000000000000012
#006320:00000000000000000000000000000052
#007360:22
#007381:1222000000000000
#0073c1:00320000000000000000000000000000
#007320:0012000022000000
#007370:00520000
#0093b0:1323000000000000
#009360:00530000000000000000000000000000
#009371:0013335300230000
#009321:00000053000000005300000000000000
#0093b0:0000001300230000
#009360:0053
#0103b0:00130000
#010360:0000000000000000000000230000000000000000000000000000000000000000
#011320:00000013000000000000000000000000
#011370:00000000002300000000000000000000
#0113b0:0000000000000013
#011370:00000000000000000000000000000053
#0123b0:23
#012321:13230000
#012361:0053000000000000
#012321:00000000000000000013000000000000
#0123b1:00000023
#0123b0:00000000000000000013000000000000
#012320:00000023
#0133b0:1323000000000000
#013360:00530000000000000000000000000000
#013321:0013230000000000
#013371:00000053000000000000000000000000
#0133b0:0000132300000000
#013360:00000000005300000000000000000000
#0133b0:00000000000000000013000000000000
#013320:00000023
#013321:00000000000000000013000000000000
#0133b1:00000023
#0143b1:1333230000000000
#014361:00530053000000000000000000000000
#014321:00000000000000130023000000000000
#014361:0053
#0143b0:00000000000000130023000000000000
#014370:000000000000000000000000000000000000000000000000000000000000000000000000000000000000000000000000000000000000000000000000000000000000000000000000000000000000000000000000000000000000000000000000000000000000000000000000000000000000000000000000000000000000000000000000000000000000000000000000000000000000000000000000000000000000000000000000000000000000000000000000000000000000000000000000000000000000000000000000000000000000000000000000000000000000000000000000000000000000000000000000000000000000000000000000000000000000000000000000000000000000000000000000000000000000000000000000000000000000000000000000000000000000000000000000000000000000000000000000000000000000000000000000000000000000000000000000000000000000000000000000000000000000000000000000000000000000000000000000000000000000000000000000000000000000000000000000000000000000000000000000000000000000000000000000000000000000000000000000000000000000000000000000000000000000000000000000000000000000000000000000000000000000000000000000000000000000000000000000000000000000000000000000000000000000000000000000000000000000000000000000000000000000000000000000000000000000000000000000000000000000000000000000000000000000000000000000000000000000000000000000000000000000000000000000000000000000000000000000000000000000000000000000000000000000000000000000000000000000000000000000000000000000000000000000000000000000000000000000000000000000000000000000000000000000000000000000000000000000000000000000000000000000000000000000000000000000000000000000000000000000000000000000000000000000000000000000000000000000000000000000000000000000000000000000000000000000000000000000000000000000000000000000000000000000000000000000000000000000000000000000000000000000000000000000000000000000000000000000000000000000000000000000000000000000000000000000000000000000000000000000000000000000000000000000000000000000000000000000000000000000000000000000000000000000000000000000000000000000000000000053000000000000000000000000000000000000000000000000000000000000000000000000000000000000000000000000000000000000000000000000000000000000000000000000000000000000000000000000000000000000000000000000000000000000000000000000000000000000000000000000000000000000000000000000000000000000000000000000000000000000000000000000000000000000000000000000000000000000000000000000000000000000000000000000000000000000000000000000000000000000000000000000000000000000000000000000000000000000000000000000000000000000000000000000000000000000000000000000000000000000000000000000000000000000000000000000000000000000000000000000000000000000000000000000000000000000000000000000000000000000000000000000000000000000000000000000000000000000000000000000000000000000000000000000000000000000000000000000000000000000000000000000000000000000000000000000000000000000000000000000000000000000000000000000000000000000000000000000000000000000000000000000000000000000000000000000000000000000000000000000000000000000000000000000000000000000000000000000000000000000000000000000000000000000000000000000000000000000000000000000000000000000000000000000000000000000000000000000000000000000000000000000000000000000000000000000000000000000000000000000000000000000000000000000000000000000000000000000000000000000000000000000000000000000000000000000000000000000000000000000000000000000000000000000000000000000000000000000000000000000000000000000000000000000000000000000000000000000000000000000000000000000000000000000000000000000000000000000000000000000000000000000000000000000000000000000000000000000000000000000000000000000000000000000000000000000000000000000000000000000000000000000000000000000000000000000000000000000000000000000000000000000000000000000000000000000000000000000000000000000000000000000000000000000000000000000000000000000000000000000000000000000000000000000000000000000000000000000000000000000000000000000000000000000000000000000000000000000000000000000
#014370:0000000000130000
#0143b0:00000023
#0153b0:1353
#015390:0053005300530053
#015370:00530053
#0163b0:23
#016320:00000014
#016360:0000000000000054
#017320:24
#017320:0014240000000000
#017360:00000054000000000000000000000000
#017361:0014240000000000
#0173a1:00000054000000000000000000000000
#017371:0013
#0173b1:00000000000000000023000000000000
#0173b1:0000000000130000
#017371:00000000000000000000002300000000
#0183b1:0000133300230000
#018361:00000000003300005300000000000000
#018370:0000001300230000
#018320:0053
#0183b0:00000000000000000000000000130000
#018360:0000000000000000000000000000000000000000000000000000000000530000
#0193b0:23
#019360:0013
#0193b0:0000000000230000
#019321:0000000000130000
#019371:00000023
#0203b1:0000001323000000
#020361:00000000000000530000000000000000
#0203a1:00000014
#020361:0000000000000054
#0213a1:24
#0213a1:0014240000000000
#021361:00000054000000000000000000000000
#021360:0014240000000000
#021320:00000054000000000000000000000000
#021360:0013
#021320:00000000000000000023000000000000
#021320:0000000000130000
#021360:00000000000000000000002300000000
#022320:0000133300230000
#022370:00000000003300005300000000000000
#022361:0000001300230000
#0223b1:0053
#023321:1323000000000000
#023371:00530000000000000000000000000000
#023370:0013230000000000
#0233b0:00000053000000000000000000000000
#023321:0000135300002300
#023371:00000000005300000053000000000000
#023360:0000001300002300
#0233b0:00000000000000000053000000000000
#0243b0:13330000230000000000000000000000
#024370:0000000000530000000000000000000000000000000000000000000000000000
#024361:00130000230000000000000000000000
#024321:0000000000530000000000000000000000000000000000000000000000000000
#025321:1424000000000000
#025361:00540000000000000000000000000000
#0253a0:0014240000000000
#025360:00000054000000000000000000000000
#0253b0:0000000000000013
#025370:00000000000000000000000000000053
#0263b0:23
#026320:0013230000000000
#026360:00000053000000000000000000000000
#0263a1:00142400
#026351:0000005400000000
#0263a1:0000000000140000
#026351:00000024
#027381:13230000000000000000000000000000
#027391:00001323000000000000000000000000
#0273a1:00000000132300000000000000000000
#0273b1:0000001300230000
#027361:0053
#028371:0013
#028321:00000000000000000053230000000000
#028360:0000000000130000
#0283b0:00000000000000000000005323000000
#0293b0:13230000000000000000000000000000
#029380:00001323000000000000000000000000
#029350:00000000132300000000000000000000
#029320:0000001323000000
#029370:00000000000000530000000000000000
#030320:0014000000000000
#030370:00240000
#030370:00000013
#0303b0:0000000000000023
#031350:13230000000000000000000000000000
#031340:00001323000000000000000000000000
#031330:00000000132300000000000000000000
#031320:0000001300230000
#031370:0053
#0323b0:1323000000000000
#032360:00530000000000000000000000000000
#032361:0013230000000000
#032321:00000053000000000000000000000000
#0323b0:0000135300002300
#032360:00000000005300000053000000000000
#032371:0000001300002300
#032321:00000000000000000053000000000000
#032361:0000000000000013
#0323b1:00000000000000000000000000000023
#033371:13
#033321:00230000000000000000000000000000
#033361:0013000000000000
#0333b1:00230000
#033320:0013000000000000
#033370:00230000
#033320:0000001300000000
#033370:00000000000000230000000000000000
#0333b0:0013
#033360:00000000000000000023000000000000
#0343a0:1424000000000000
#034360:00540000000000000000000000000000
#034321:0014240000000000
#034361:00000054000000000000000000000000
#0343a0:00140000
#0353c0:22
#035321:12000052
#035371:00525200
#036321:22
#0363c0:12320000
#036370:0052000022000000
#036321:00001232
#036371:0000000000520000
#037371:22
#0373c0:12000000000000000022000000000000
#037370:0000000000000000005200000000000000000000000000000000000000000000
#037321:00000000000000000012000000000000
#037371:00000000000000000000000000000032
#038321:00000000003200000000000000000000
#038351:000000000000000000000032000000000000000000000000
#038361:000000000000000000000000000000000000000000000032003300000000000000000000000000000000000000000000
#038371:0032
#040321:22
#0373c0:00000000000000000000000000000012
#038370:00000000003200000000000000000000
#038390:000000000000000000000032000000000000000000000000
#0383a0:000000000000000000000000000000000000000000000032000000000000000000000000000000000000000000000000
#0383b0:000000000000000000000000000000000000000000000000323300000000000000000000000000000000000000000000
#040360:22
