This file was generated by Ched 2.7.0.0.
#TITLE ""
#ARTIST ""
#DESIGNER ""
#DIFFICULTY 0
#PLAYLEVEL
#SONGID ""
#WAVE ""
#WAVEOFFSET 0
#JACKET ""
#REQUEST "ticks_per_beat 480"
#00002: 4
#BPM01: 77
#BPM02: 71
#00008: 01
#03708: 02
#TIL00: ""
#HISPEED 00
#MEASUREHS 00
#0001a:1414
#00014:00140014
#0021a:14
#00214:00140000
#00218:0014
#00212:00000014
#00210:41
#0031a:14
#00318:00140000
#00412:1414
#00418:00140014
#00612:14
#00618:00140000
#00614:0014
#0061a:00000014
#00712:1400000000000026
#00714:00140000
#00718:00000026
#00710:41
#0081a:00140000
#00812:0014
#00818:00000014
#00814:0000000000000014
#00918:1400000000000026
#00912:00140026
#0091a:0014
#01012:00140000
#0101a:0014
#01014:00000014
#01018:0000000000000014
#01112:0014
#01114:1434343400343434
#01110:41
#0121a:00140000
#01212:0014
#01218:00000014
#0121f:11
#01314:14
#0131a:00140000
#01312:0014
#01318:00000014
#01414:1414
#0141a:00140000
#01418:00000014
#01512:1414
#01513:0014001400140014
#01514:00140014
#0171a:2414
#01714:0000140000140000
#01718:00000014
#0171f:21
#01710:0041
#01812:14
#01814:00140000
#01818:0000001400000000
#0181a:0014000000000000
#01912:1414
#01918:0000140000000014
#01914:00000014
#0191a:0000000000140000
#02012:14
#0201a:0014000000000000
#02014:00140000
#02018:00000014
#0211a:0014
#02114:0000000000140014
#02112:00140000
#02118:00000014
#0221a:00140000
#02214:0000001400000000
#02212:0014000000000000
#02218:14
#02318:0000001400000000
#02310:41
#02414:14
#0241a:00140000
#02412:0014
#02418:00000014
#02518:0026000014000000
#02514:0000000000140000
#02512:26260000
#02618:1400000000140000
#02612:0014
#02614:00000014
#0261a:00240000
#03318:14
#03312:00140000
#0331a:0014
#03314:00000014
#0271a:14
#02718:00140000
#02714:0000001400000000
#02712:0014000000000000
#0281a:1414
#02814:0000140000000014
#02818:00000014
#02812:0000000000140000
#02810:41
#0291a:14
#02912:0014000000000000
#02918:00140000
#02914:00000014
#03012:0014
#03018:0000000000140014
#0301a:00140000
#03014:00000014
#03112:00140000
#03118:0000001400000000
#0311a:0014000000000000
#03114:14
#03214:0000001400000000
#03418:26260000
#03412:0026000000000000
#00358:00240000
#0035a:54
#00752:64
#00754:00240000
#01154:54
#01152:0024
#01254:14
#01552:2424
#01554:00240024
#01553:0054005400540054
#01952:14
#02058:00000064
#0215a:14
#0175a:14
#01858:0000006400000000
#02254:0000005400000000
#02358:0000005400000000
#02658:64
#0265a:00140000
#03458:00160000
#02754:0000005400000000
#0285a:14
#02954:00000054
#03158:0000006400000000
#03254:0000006400000000
#03052:14
#001380:14240000
#001320:00001424
#0033a0:1424
#003380:00540000
#005340:14240000
#0053a0:00001424
#007320:1424
#007340:00540000
#011340:1434343400343434
#011320:0034
#012340:24
#015320:1434
#015330:0034003400340034
#015340:00340034
#016320:34000024
#018380:0000001400000000
#0183a0:00000024
#020380:0000001400003400
#0213a0:24
#022340:0000001400000000
#022320:00000024
#023380:1434343400000000
#0233a0:00000024
#025380:0000000000001434
#026380:34
#0263a0:00240000
#027340:0000001400000000
#027320:00000024
#029340:0000001400003400
#030320:24
#031380:0000001400000000
#0313a0:00000024
#032340:1434343400000000
#032320:00000024
#035320:14
#035340:00000024
#0363a0:14
#036380:00000024
#037320:14
#037340:0000000000540000
#038320:0000000000540000
#040350:23
