This file was generated by Ched 2.7.0.0.
#TITLE ""
#ARTIST ""
#DESIGNER ""
#DIFFICULTY 0
#PLAYLEVEL
#SONGID ""
#WAVE ""
#WAVEOFFSET 0
#JACKET ""
#REQUEST "ticks_per_beat 480"
#00002: 4
#BPM01: 138
#00008: 01
#TIL00: ""
#HISPEED 00
#MEASUREHS 00
#0011a:14
#00214:14
#00318:14
#00412:14
#0051a:14
#00510:41
#00614:14
#00718:14
#00812:14
#0171a:14
#0181a:14
#01810:41
#01914:14
#02014:14
#02118:14
#02218:14
#02312:14
#02412:14
#0241f:11
#02914:14
#03018:14
#03012:0026
#0301f:0000000000000021
#03118:0016
#03212:16
#03218:0016
#03210:41
#03512:1616
#03618:1616
#03918:0016
#03912:26
#04012:16
#04018:0016
#04312:1616
#04418:1616
#04812:16
#04818:0016
#04810:41
#04912:16
#04918:0016
#05218:16
#05212:0016
#05318:16
#05312:0016
#04712:26
#04718:0026
#05118:26
#05112:0026
#04110:41
#01110:0041
#0093a0:14
#0103a0:24
#011340:14
#012340:24
#013380:14
#014380:24
#015320:14
#016320:24
#0253a0:14
#026380:34
#0273a0:34
#028380:24
#030320:0000000016363626
#033320:1626
#034380:1626
#037320:1626
#038380:1626
#041320:1626
#042380:1626
#045320:1626
#046380:1626
#050320:1626
#054380:1626
#055320:16363636
#056320:36
#057320:3636363636363626
