This file was generated by Ched 2.7.0.0.
#TITLE ""
#ARTIST ""
#DESIGNER ""
#DIFFICULTY 0
#PLAYLEVEL
#SONGID ""
#WAVE ""
#WAVEOFFSET 0
#JACKET ""
#REQUEST "ticks_per_beat 480"
#00002: 4
#BPM01: 138
#00008: 01
#TIL00: ""
#HISPEED 00
#MEASUREHS 00
#0011b:1313
#00118:00130013
#00115:0013000000130000
#00112:00131313
#00218:0013001300131300
#00215:0000130000330000
#00212:1313
#0021b:1313
#00318:0013001300000000
#00315:00130000
#00316:0000000000130013
#0031b:1300000013130013
#00317:00000013
#00312:13001313
#00417:1313
#0041b:0013130000000000
#00412:1323
#00418:0000000000130000
#00419:00000013
#0041a:0000000000000013
#00413:0000000000230000
#00414:00000023
#00415:0000000000000023
#00416:0033000000000000
#00916:1313
#00917:00130013
#0091b:1313
#00912:00130013
#0101b:1313
#01012:00130013
#01014:0000001300000013
#01016:0013
#01017:00130000
#01116:1300000000130013
#01118:0013000000000000
#01115:00130000
#01112:0000001300000000
#0111b:1300000000130013
#01117:0000001300001300
#01110:0041
#0121b:0000000000130000
#01215:0000000000000013
#01218:00000013
#0131b:0013000013000000
#01318:00130013
#01315:0000001300000013
#01312:0013
#01418:13000013
#01412:0000000013000013
#01415:0000000000130000
#0141b:0000000000000013
#0151b:0013000000000000
#01518:00130000
#01515:0000001300000000
#01517:00001313
#01512:00001313
#01516:0000000000130013
#01617:13000013
#0161b:0013
#01619:0000000000130000
#01612:13000013
#01614:0000000000130000
#01716:13131300
#01712:0013001300000000
#01718:0000000000000013
#0171b:00131300
#01715:00000013
#01816:13130000
#01812:0013001300000000
#0181b:0000000000130000
#01815:0000000000000013
#01818:00000013
#01810:41
#01917:1300001300001300
#0191b:0000130013000013
#01912:13
#01916:0013
#02017:1300000000230000
#0201b:00131323
#02018:0000001300000013
#02012:1300000000130000
#02016:0013
#02116:13131300
#02112:00000013
#02114:0000000000000013
#0211b:13130000
#02117:0013001300001300
#02216:1300000013130000
#02214:0013000000000000
#02212:0000130000000013
#02217:0000130000000013
#0221b:13
#0231b:1313
#02317:00130013
#02319:0000001300000013
#02312:00000013
#02316:1313
#02314:0000000000130000
#0241b:1313
#02417:00130000
#02414:0000001300000000
#02416:1313
#02412:00000013
#0241f:11
#0251b:1313
#02517:0013000000130000
#02516:13130013
#02512:0000001300000013
#0261b:1313
#02618:0000000000130000
#02615:00000013
#02612:0000130000000013
#02616:0013
#02617:0000000000000013
#02716:0000001313000000
#02717:0000000000000013
#0271b:0013
#02812:13
#02818:0000000000130013
#02815:00000013
#02816:0013
#02817:13
#0291b:1300001300000013
#02919:0013000000001300
#02917:00130000
#02912:13131313
#03118:0013001300000000
#03115:00130000
#0311b:00001313
#03117:0000000000130000
#03116:00001313
#03112:0000000000130000
#03318:0013001300000000
#03315:00130000
#03417:1300130000130000
#0341b:0013000013001300
#03412:1300130000130000
#03416:0013000013001300
#03517:00130000
#0351b:0013
#03512:00130013
#0361b:1300000013000013
#03619:0013001300000000
#03617:0000130000130000
#03616:0000000013000013
#03612:0000130000130000
#0371b:00130000
#03717:0000000013001313
#03719:0000001300000000
#03712:0000000013001323
#03716:00130000
#03714:0000001300000000
#03819:00130000
#0381b:1300001300000000
#03812:0023000000232300
#03814:00230000
#03816:0000002300000000
#0391b:13130000
#03917:0013001300001300
#03919:0000000000130000
#03912:00000013
#03914:0000000000130000
#03916:13131300
#0401b:0013000000001300
#04018:00130000
#04015:0000001300000000
#04017:0013
#04019:0000000000130000
#04012:0013
#04014:0000000000130000
#04016:00000013
#0441b:0013001300000013
#04417:0000130013130000
#04412:1300130000130000
#04416:0013001300000013
#04512:0013000000000013
#04515:00130013
#04518:0000001300130000
#0451b:0013000013000013
#04612:0000000000130013
#0461b:00000013
#04617:0000000000230023
#04616:00000023
#0471b:1313
#04717:00130013
#04719:0000000000130000
#04716:2323
#04712:00230023
#04817:0013001300001300
#0481b:13131300
#04812:0023002300002300
#04816:00232300
#04810:41
#04918:0013001300002300
#0491b:2313
#04915:0000230000130013
#04916:13
#04912:0023
#05016:00131300
#05014:0013000000001300
#05012:13
#05015:0000000000130000
#05013:0000000000000013
#05017:23
#0501b:00232300
#0501a:0000000000230000
#05019:00000023
#05018:0000000000000023
#05517:0013000000130000
#05516:2300001300000013
#0551b:2323
#05512:00230023
#00512:1313
#00515:00130013
#00518:0013000000130000
#0051b:13131313
#00510:41
#00615:0013001300131300
#00618:0000130000330000
#0061b:1313
#00612:1313
#00715:0013001300000000
#00718:00130000
#00717:0000000000130013
#00712:1300000013130013
#00716:00000013
#0071b:13001313
#00816:1313
#00812:0013130000131300
#0081b:1313
#00817:0033000000330000
#03012:1300130024242424
#0301a:0000000024242424
#0301f:0000000000000021
#03215:0013001300000000
#03218:00130000
#03212:00001313
#03216:0000000000130000
#03217:00001313
#0321b:0000000000130000
#03210:41
#04115:0013001313333300
#04118:0000130013333300
#04112:00000000000000000000001300000000
#0411b:00000000000000000000001300000000
#04110:41
#04216:1300130000130000
#04212:0013000013001300
#0421b:1300130000130000
#04217:0013000013001300
#04316:00130000
#04312:0013
#0431b:00130013
#05112:1313
#05116:00130013
#05114:0000000000130000
#05117:2323
#0511b:00230023
#05216:0013001300001300
#05212:13131300
#0521b:0023002300002300
#05217:00232300
#05315:0013001300002300
#05312:2313
#05318:0000230000130013
#05317:13
#0531b:0023
#05417:00130013
#05419:0013000000130000
#0541b:1313
#05416:2323
#05412:00230023
#0561c:1212121212121212
#05612:13
#0571c:1212121212121212
#05715:0013000013000000
#05714:0000130000130000
#05713:0000001300001300
#05712:0000000000000013
#00016:0000000000121200
#00018:00000000000000000000001200000000
#02156:0013
#0215b:53530000
#02157:0023002300000000
#0015b:1313
#00158:00130013
#00252:0053
#00255:00000013
#00258:00000013
#00456:00130000
#00452:53
#0045b:00130000
#00552:1313
#00555:00130013
#0065b:0063
#00655:00000013
#00658:00000013
#00852:00130013
#0085b:6363
#00857:00130013
#00952:00530053
#00956:0053
#0105b:0053
#01157:0000005300002300
#0115b:0000000000530053
#01156:0000000000000053
#01255:0000000000000053
#01352:0053
#01458:53
#01452:0000000000000053
#01552:00005353
#01556:0000000000230023
#01652:53
#01657:00000053
#0175b:0013
#01756:0013
#01857:0000001300000000
#01852:0000001300000000
#01952:53
#01956:0053
#02052:5300000000230000
#02056:0053
#02257:00530000
#02356:53
#02352:00130013
#0235b:0013
#02456:53
#0245b:1353
#02452:00000013
#0255b:5353
#02557:0023000000230000
#02556:00530053
#02552:0000002300000023
#0265b:53
#02657:0000000000000053
#02756:0053
#02857:53
#0295b:0000005300000053
#03052:0000000000000014
#0305a:0000000000000014
#0315b:00000013
#03156:00000013
#03252:00000013
#03257:00000013
#03452:00130000
#03457:00130000
#03456:00000013
#0345b:00000013
#03552:00530053
#0355b:0053
#0365b:0000000000000053
#03656:0000000000000053
#03752:0000000013000013
#03757:0000000013000053
#0385b:2300005300000000
#03852:00000013
#03957:0023002300001300
#03952:00000013
#0395b:53530000
#0405b:00000013
#04056:00000013
#04256:00130000
#0425b:00130000
#04257:00000013
#04252:00000013
#04155:0053
#04152:00000000000000000000002300000000
#04158:0063
#0415b:00000000000000000000002300000000
#04352:0063
#0435b:00630063
#04452:5300530000130000
#04456:0023002300000000
#04457:0000000000130000
#0455b:0000000000000053
#04552:0000000000000053
#04756:13
#04752:00130013
#04856:0013
#04852:00000013
#0505b:00130000
#05157:13
#0515b:00130013
#05257:0013
#0525b:00000013
#05452:00130013
#0555b:5353
#05557:0023000000230000
#05556:0000002300000023
#05552:00630063
#05652:53
#00056:00000052
#000380:0000000000000000000000000000000012520000220000000000000000000000
#0003a0:000000000000000000000000000000000000000000000000000000000000000000000000000000000000000000000000005200000000000000000000000000000000000000000000000000000000000000000000000000000000000000000000
#000360:000000000000000000000000000000000000000000000000005200000000000000000000000000000000000000000000
#000360:00000012
#001320:22
#002320:0013
#002350:0000000000332300
#004320:13
#004360:0033230000000000
#0063b0:0013
#006380:0000000000332300
#0083b0:13
#008370:0033230000000000
#0083b0:0013
#008370:0000000000332300
#009320:00130033
#009360:0033
#010360:23
#0103b0:0013
#010370:00000023
#011370:0000001300005300
#0113b0:0000000000330033
#012370:0023
#011361:0000000000000013
#012321:0023
#012351:0000000000000013
#013321:0023000000000000
#013321:0013
#013351:00000023
#014381:13
#0143b1:0023
#014321:0000000000000013
#015361:0023000000000000
#015321:00001333
#015361:0000000000530053
#016321:33
#016361:0023
#016371:00000013
#0173b1:23
#0183b1:13330000
#018371:0033002300000000
#019321:13
#019361:00230000
#019361:0013
#019321:00000023
#020321:13
#020361:00230000
#020361:00001323
#020321:0000000000530000
#0213b1:13332300
#021371:0053005300000000
#022371:00130000
#0223b1:0000000033230000
#023361:13
#023321:00230000
#024361:13
#024321:00230000
#0243b1:0013
#024371:00000023
#0253b1:13230000
#025371:0053000000000000
#025360:00132300
#025320:0000005300000000
#0253b1:00001323
#025371:0000000000530000
#025360:00000013
#025320:0000000000000053
#026360:23
#0263b1:13
#026371:00230000
#026371:0000000000000013
#0273b1:0000002300000000
#027361:0013
#027321:0000000000000023
#028371:13
#0283b1:0023
#0293b1:0000001300000000
#029371:0000000000230000
#0293b1:0000000000000013
#030371:00230000
#033321:00001333
#033351:0000000000330023
#0333b0:00001333
#033380:0000000000330023
#035320:00130000
#035360:0023
#0353b1:0013
#035371:00000023
#035320:00000013
#036360:23
#0363b0:0000000000000013
#037370:0023000000000000
#036361:0000000000000013
#037321:0023000000000000
#037371:0000000000000013
#0383b1:53
#038371:0023000000000000
#0383b1:0000001300000000
#038371:00000023
#0393b1:13332300
#039371:0053005300000000
#041351:0000000013333323
#041321:00000000000000000000005300000000
#041380:0000000013333323
#0413b0:00000000000000000000005300000000
#0433b0:00130000
#043370:0023
#043321:0013
#043361:00000023
#0433b0:00000013
#044370:23
#044321:13332300
#044361:0053005300000000
#0453b1:0000000000000013
#046381:0023
#045320:0000000000000013
#046350:0023
#0553b0:13230000
#055370:0053000000000000
#055321:00132300
#055361:0000005300000000
#0553b0:00001323
#055370:0000000000530000
#055321:00000013
#055361:0000000000000053
#056321:33
#057361:23
