This file was generated by Ched 2.7.0.0.
#TITLE ""
#ARTIST ""
#DESIGNER ""
#DIFFICULTY 0
#PLAYLEVEL
#SONGID ""
#WAVE ""
#WAVEOFFSET 0
#JACKET ""
#REQUEST "ticks_per_beat 480"
#00002: 4
#BPM01: 138
#00008: 01
#TIL00: ""
#HISPEED 00
#MEASUREHS 00
#0011b:13
#00112:00130000
#00118:00001313
#00115:0000000000130000
#00215:0013001300000000
#00218:00130000
#0021b:00001313
#00212:0000000000130000
#00315:0013001300001300
#00318:0000130000130013
#00312:0013
#0031b:0013
#01012:00130000
#01018:0000001300000013
#01015:0013
#01115:1300000000000013
#0111b:0013000000000000
#01112:00130000
#01118:0000001300000000
#01110:0041
#0121b:0000000000130000
#01218:0000000000000013
#01215:00000013
#01315:00130000
#01318:0000001300000013
#01312:0013
#01415:13000013
#01418:0000000000130000
#0141b:0000000000000013
#01515:00130013
#01518:0000001300000000
#01512:0013
#01618:0000000000130000
#01615:00330013
#01612:13
#0171b:1313
#01715:0013000000001300
#01718:0000130000000013
#01712:0000001300000000
#01812:1300000000130000
#01818:0013000000001300
#01815:0000130000000013
#0181b:0000001300000000
#01810:41
#01915:0000001300000013
#0191b:13
#01918:0013
#02015:0000001300000000
#02012:0000000000000013
#0201b:13
#02018:0013
#02112:00000013
#02118:0000130000000013
#0211b:13
#02215:13130000
#0221b:0013000000000000
#02218:0000000000000013
#02318:0000001300000013
#02312:1313
#02315:00000013
#0231b:0000000000130000
#02412:13
#02418:00130000
#02415:0000001300000000
#0241b:0013
#0241f:11
#02512:13
#02516:0013000000000000
#0251b:0013
#02517:0000000000130000
#0261b:0013
#02618:1300000000130000
#02615:00000013
#02612:1300000000000013
#0271b:0013
#02818:0000000000130013
#02815:00000013
#02812:13
#02912:13
#02918:0013000000000013
#02915:00130013
#0291b:0000001300000000
#03112:0013000000000000
#03118:0000130000130000
#03115:0000001300001300
#0311b:00001313
#0331b:0013000000000000
#03315:0000130000333300
#03318:0000001300000000
#03312:0013
#03615:0013000000130013
#0361b:0000130000000013
#03612:0000001300000000
#03618:0013
#03715:00131300
#03718:0000001300001313
#03712:0000000000001323
#04515:0000001300130000
#04518:00131313
#04512:0000000000000013
#04918:0013000000002300
#04912:0000001323000000
#04915:0000230000130000
#0491b:2300000000000013
#05018:0013000013130000
#0501b:0000000000001313
#05015:2300000000002323
#05012:0000230023230000
#05517:0013000000000000
#05516:0000000000130000
#0551b:23
#05512:0023
#00415:0000130013130000
#00412:1300000000001313
#0041b:0013000023230000
#00418:0000000000002323
#0341b:13130000
#03415:0013000000000000
#03412:00001313
#03418:0000000000130000
#03918:0000000000130000
#03915:00130013
#03912:13
#0391b:00000013
#04112:0013000013333300
#04118:0000001300000000
#0411b:0000000013333300
#04110:41
#04718:0000000000130000
#04712:23000023
#0471b:00230000
#04715:0023
#05716:0012001200120012
#05718:00121212
#00018:00000000000000001300001300000000
#00015:0000000000131300
#00512:13
#0051b:00130000
#00515:00001313
#00518:0000000000130000
#00510:41
#00618:0013001300000000
#00615:00130000
#00612:00001313
#0061b:0000000000130000
#00718:0013001300001300
#00715:0000130000130013
#0071b:0013
#00712:0013
#0081b:1300000000130000
#00812:0013000013000000
#00818:00130000
#00815:00000013
#0091b:00130013
#00918:0013
#0321b:0013000000000000
#03215:0000130000130000
#03218:0000001300001300
#03212:00001313
#03210:41
#0351b:00130013
#03518:0013
#04012:0013000000000000
#04018:0000130000130000
#04015:0000001300001300
#0401b:00001313
#04212:13130000
#04218:0013000000000000
#0421b:00001313
#04215:0000000000130000
#04418:0013000000130013
#04412:0000130000000013
#0441b:0000001300000000
#04415:0013
#04312:00130013
#04315:0013
#05315:0013000000002300
#0531b:0000001323000000
#05318:0000230000130000
#05312:2300000000000013
#05415:0013000023000000
#05418:2300000000130000
#0541b:00230000
#05412:00000023
#05115:0000000000130000
#0511b:23000023
#05112:00230000
#05118:0023
#0381b:0000001300000000
#03818:00130000
#03812:00230000
#03815:0000002300000000
#03014:00002424
#03018:0000000000240024
#0301f:0000000000000021
#0461b:0000000000230000
#04615:00000023
#04618:0000000000000023
#04812:0023000000002300
#04818:00230000
#04815:0000002300000000
#0481b:0023
#04810:41
#0521b:0023000000002300
#05215:00230000
#05218:0000002300000000
#05212:0023
#0561b:23
#0015b:13
#00152:00130000
#00158:00000013
#0025b:00000013
#01055:0053
#01155:0000000000000053
#01158:0000005300000000
#01258:0000000000000053
#01352:0053
#01455:63
#0145b:0000000000000063
#0175b:0013
#0185b:0000001300000000
#0195b:63
#01958:0053
#02255:00530000
#02352:5313
#02355:00130013
#0245b:0053
#02452:13
#02458:00000013
#02552:63
#02556:0023000000000000
#0255b:0053
#02557:0000000000230000
#02652:5300000000000053
#02658:53
#0275b:0053
#02852:53
#02958:0000000000000053
#0295b:0000005300000000
#03058:0000000000000014
#0315b:00000013
#03155:00000013
#0345b:00130000
#03452:00000013
#03655:0000000000000053
#0365b:0000000000000053
#03755:0013
#03758:0000000000000053
#03752:0000000000000053
#03955:00530013
#03952:53
#0395b:00000013
#04152:0053
#0415b:0063
#04552:0000000000000053
#04752:13000013
#0475b:00130000
#0485b:0013
#04852:00000013
#05052:00130000
#0555b:53
#05557:0023000000000000
#05556:0000000000230000
#05552:0063
#00455:00130000
#00552:13
#0055b:00130000
#00555:00000013
#00652:00000013
#00858:00130000
#00855:00000013
#0095b:00530053
#00958:0053
#01552:0053
#01555:00000053
#01652:53
#0205b:63
#02058:0053
#0215b:5313
#02158:00530000
#03252:00000013
#03258:00000013
#03352:0053
#0355b:00530053
#03558:0053
#0405b:00000013
#04055:00000013
#04252:00130000
#0425b:00000013
#04458:0000000000130063
#04452:0000000000000063
#04352:00630063
#04355:0063
#0515b:13000013
#05152:00130000
#05252:0013
#0525b:00000013
#0545b:00130000
#05452:00000013
#0565b:53
#0385b:0000005300000000
#03855:0000005300000000
#0093b0:00130033
#009380:0033
#010380:23
#010350:0013
#010320:00000023
#011380:0000001300000000
#0113b0:0000000000230000
#011350:0000000000000013
#012320:0023
#012380:0000000000000013
#0133b0:0023000000000000
#013320:0013
#013350:00000023
#014350:13
#014320:0023
#0143b0:0000000000000013
#015380:0023000000000000
#015320:0013
#015350:00000033
#016320:33
#016350:00332300
#0193b0:13
#019380:00230000
#019380:0013
#0193b0:00000023
#0203b0:13
#020380:00230000
#020380:0013
#0203b0:00000023
#0213b0:1323
#021380:00330000
#022350:00130000
#022320:0000000033230000
#023320:13
#023350:00230000
#0243b0:0013
#024380:00000023
#025320:13230000
#025360:0053000000000000
#0253b0:00001323
#025370:0000000000530000
#026320:13
#026350:00230000
#026381:13
#0263b1:00230000
#026321:0000000000000013
#027351:0000002300000000
#0273b1:0013
#027381:0000000000000023
#028321:13
#028351:0023
#0293b1:0000001300000000
#029381:0000000000230000
#029381:0000000000000013
#0303b1:00230000
#033321:0013
#033351:0000000000333323
#0353b1:00130033
#035381:0033
#036381:23
#036351:0000000000000013
#037321:0023000000000000
#0363b0:0000000000000013
#037380:0023000000000000
#037380:0000000000000013
#0383b0:0023000000000000
#037321:0000000000000013
#038351:0023000000000000
#038351:0000001300000000
#038321:00000023
#0383b0:0000001300000000
#038380:00000023
#039320:1323
#039350:00330000
#041320:0000000013333300
#041350:0000000000000023
#0413b1:0000000013333300
#041381:0000000000000023
#043321:00130033
#043351:0033
#044351:23
#044381:0000000000000013
#0453b1:0023000000000000
#044320:0000000000000013
#045350:0023000000000000
#045320:0000000000000013
#046350:0023
#0553b0:13230000
#055370:0053000000000000
#055320:00001323
#055360:0000000000530000
#0563b0:13
#057370:23
