This file was generated by Ched 2.7.0.0.
#TITLE ""
#ARTIST ""
#DESIGNER ""
#DIFFICULTY 0
#PLAYLEVEL
#SONGID ""
#WAVE ""
#WAVEOFFSET 0
#JACKET ""
#REQUEST "ticks_per_beat 480"
#00002: 4
#BPM01: 138
#00008: 01
#TIL00: ""
#HISPEED 00
#MEASUREHS 00
#0011a:1414
#00116:0014141300141413
#00112:00131313
#0021b:1313001313001300
#00212:13131300
#00218:0000000000130000
#00216:0013001300001300
#00217:00130000
#00215:00000000000000000013000000000000
#00317:0013001300000000
#00316:00131313
#0031b:13130000
#00312:1313001300130013
#00912:13130013
#00917:00130000
#0091b:1313
#00919:0013001300000013
#00914:0000000000130000
#0101b:1313
#01012:00130000
#01014:0000001300000013
#01017:00130013
#01016:0013
#01019:0013001300130013
#01116:13001313
#01118:0013000000000000
#01115:00130000
#0111b:13001313
#01112:0000001300130013
#01117:0000001300130013
#01110:0041
#01218:0000000000000012
#0121a:00000012
#0121c:0000000000120000
#01216:00000013000000000000120000000000
#0121b:00000013000000000000000000000000
#01214:00000012
#01212:0000000000000012
#01316:0012000000000000
#01314:00120000
#01312:0000001200001200
#0131c:0000000012000012
#01317:0000000012000012
#01318:00120000
#0131a:0000001200000000
#01417:12
#01412:1200000012000013
#01414:0012001200120000
#01416:00120012
#01418:0000000000000012
#0151b:0000000013000000000000000000000000000000000000000000001200000000
#01518:0000000000000000130000000000000000120012000000000000000000000000
#01515:0000001300000000
#01516:00000000000000001212000000000000
#01519:00000000000000000000000000120000
#01617:0000000000130000
#01612:0000000000130000
#01616:00001313
#0161b:00001313
#0171b:1313
#01717:0013000000001300
#01716:00131300
#01712:0000001300001300
#01719:0000000000000013
#01714:0000000000000013
#01816:13000012
#01812:0013000000000000
#0181b:00130000
#01817:0000001300000000
#0181c:0000000000120000
#01818:0000000000120012
#0181a:00000012
#01814:0000000000000012
#01810:41
#02016:12001222
#02017:0000000000000013
#02018:0000001200120000
#0201c:0012
#02012:1200001400220013
#02117:1300003300001300
#0211b:1313
#02112:0000130000001318
#02116:0033000000000000
#02216:1318000000000000
#02212:0000130018140013
#0221a:0000000000140000
#02217:0000130000000013
#0221b:1300001300000000
#0231b:13
#0231a:00140014
#02314:0000001800180018
#02312:0013000014000000
#02316:13000013
#02317:0013
#02412:14131313
#0241b:0013001300130000
#02417:1300001313000000
#0241f:11
#0251c:1212
#02517:1212121200121212
#02512:0012001200120012
#0261c:1212
#0261a:0000000000120000
#02614:00000012
#02612:0000120000000012
#02618:00001212
#02616:0000000000120012
#02718:0000001212000000
#0271c:0000000012000012
#02712:00000000000000000000001200000000
#0281c:1200000000120000
#0281a:00000012
#02818:1200000012000012
#02812:0000000000180012
#02816:00120000
#02916:1212000000120000
#0291b:0013001300000000
#02917:0000130013000013
#02919:00000013
#02912:00131313
#0311b:0013001300000000
#03117:00130000
#03116:00001414
#0311a:0000000000140000
#03317:0013001300000000
#03316:00130000
#03312:1313001300000000
#0331b:13130000
#03616:0000000000000014
#03612:0000000000130013
#0371b:0000130013000023
#03716:1300141414001414
#03712:0000001300001300
#0371a:14
#0381b:0023001300000000
#03816:0000142400002400
#03812:1400230000230000
#03817:00000000000000000013000000000000
#04012:1313130000000000
#0401b:1300001300130000
#04017:0013000013001300
#0441b:0013001300130013
#04412:1300130000000013
#04416:0013001300130000
#04418:00000013
#04415:00000000000000000000000000130000
#04512:0013001300131313
#04516:00130000
#0451b:0013001300131313
#04517:1313
#04612:0013000000130013
#0461b:0013000000001300
#04613:00130000
#0461a:00130000
#04619:0000001300000000
#04614:0000001300000000
#04618:0013
#04615:0013
#04616:0000000000242424
#0471b:13000000000000131300000000000000
#04717:00000013130000000000000013000000
#04714:0000000000180000
#04712:0013230000002300
#04716:2400001323000000
#04816:13231300
#04817:00000000000000000000001313000000
#0481b:1323
#04812:0023002300132300
#04810:41
#04915:1316230023001300
#04912:0000001300130013
#0491b:2300001300130013
#04918:00130023
#0501a:00000000140000002400000000000014
#05012:00001300000000001400141400000000
#05016:00000000240014140000000024000000
#0501b:0013000000000000
#05018:2300000000240000
#05014:0000000000000024
#01912:1200001400000000
#01916:1200000000000012
#01918:0000001212000000
#0191c:0012
#0191a:0000000000000014
#03012:1300130000240026
#03016:0012000000000000
#0301b:00130000000000000000000000000000
#03017:0000000022222200
#0301a:00002424
#03018:0000000000000026
#0301f:0000000000000021
#03916:13131313
#03912:0000000000130000
#0391b:13130000
#04115:0013000013001300
#04118:0000130000130000
#0411b:13000000000013000000001300000000
#04112:13000000000013000013000000130000
#04110:41
#0561c:1212121212121212
#05612:14
#05616:0014
#0571c:1212121212121212
#05714:0014000000120000
#05716:00140012
#05718:0000001400000012
#05712:0012
#0041b:13
#00419:0013000000000000
#00417:00130000
#00412:0033000028262422
#00512:1414
#00516:0014140000141400
#0051b:13131313
#00517:0000001300000013
#00510:41
#00612:1313001313001300
#0061b:13131300
#00615:0000000000130000
#00617:0013001300001300
#00616:00130000
#00618:00000000000000000013000000000000
#00716:0013001300000000
#00717:00131313
#00712:13130000
#0071b:1313001300130013
#00812:13001414
#00814:0013000000000000
#00816:000000130000001414000000
#0081a:00001414
#0081b:0033000000000000
#0321b:13
#03212:1313001300140000
#03216:00131414
#03210:41
#03412:1400000000140000
#03416:1414140014141400
#0341a:0014000014000000
#03512:1300001300130013
#03517:1300001300130013
#03516:00131313
#0351b:00131313
#04216:1414000014140000
#0421a:0014000014001400
#04212:1400140000140000
#0431b:1300001300130013
#04316:1300001300130013
#04317:00131313
#04312:00131313
#0511a:14
#05116:00000013130000000000000013000000
#05112:24000000000000131300000000000000
#05114:0000000000180000
#0511b:0013230000002300
#05117:0000001323000000
#05217:13231300
#05216:00000000000000000000001313000000
#05212:1323
#0521b:0023002300132300
#05315:0016130000002300
#0531b:0000001300130013
#05312:2300001300130013
#05318:13232313
#05412:0013140024002400
#0541b:0013000000000000
#05416:000000240000001414000000
#05415:23
#0541a:00002424
#05516:000014001400000014001400000014001400000000140000
#05512:24002424
#0551a:00240024
#00012:00000012
#0215b:5313
#02152:00530000
#02157:0013
#0025b:00000013
#00256:00000013
#00952:00530053
#0095b:0053
#01056:0053
#01258:0000000000000052
#01256:00000023000000000000000000000000
#0125b:00000023000000000000000000000000
#0135c:0052
#01457:52
#01452:0000000000000053
#0175b:0013
#01756:0013
#01857:0000001300000000
#01852:0000001300000000
#01952:52
#01956:52
#0195c:0062
#01958:0062
#0205c:0052
#02058:0000000000220000
#02052:52
#02056:52
#02356:53
#02352:0023000034000000
#0235a:00440044
#02457:5353
#02452:34000013
#0245b:0023000000230000
#0255c:5252
#02557:0022520000225200
#02552:0000002200000022
#02656:0000000000000052
#0265c:52
#02957:0000000023000053
#0295b:0000005300000000
#03156:00000014
#03152:00000013
#03656:0000000000000054
#03652:0000000000130053
#03657:0000000000130000
#03756:2300000014000064
#0375b:0000000013000013
#0375a:24
#0385b:0000005300000000
#03856:00000014
#03852:24
#03857:00000000000000000023000000000000
#03956:63630013
#0395b:63630000
#0395a:00000014
#04155:00005353
#04158:0000000000530000
#04152:00000000000000000023000000230000
#0415b:00000000000000000000002300000000
#04756:14
#04752:00130013
#0485b:0013
#04852:00000013
#05056:00140000
#05152:14
#0515b:00130013
#0015a:4444
#00156:00440044
#00452:00130000
#00457:00130000
#00552:3434
#00556:00340034
#00652:00000013
#00657:00000013
#00856:00130000
#0085b:00130000
#00852:00000014
#0085a:00000014
#01152:0000005300530053
#01156:00002323
#01157:0000000000000053
#01556:00000000000000005252000000000000
#01559:00000000000000000000000000520000
#01558:0000000000000000000000000000000000220022000000000000000000000000
#0155b:0000000000000000000000000000000000000000000000000000002200000000
#0165b:00004343
#01652:0000000000330000
#02252:0000530000140000
#0225a:0000000000140000
#02758:0052
#02752:00000000000000000000002200000000
#0285c:52
#02856:00220000
#02852:0000000000580022
#0305b:00230000000000000000000000000000
#03052:0000000000000036
#03058:0000000000000046
#03256:00000014
#0325b:00000013
#03452:54140000
#03456:0024140000241400
#0345a:00006414
#03556:00535353
#03552:0000002300230023
#04057:0063000000001300
#04052:00230014
#04256:54146414
#0425a:0024000000001400
#04252:0000140000240000
#04357:00636363
#0435b:0000002300230023
#04452:53530000
#04456:0023002300130000
#0445b:0023002300130000
#0455b:0000000000000013
#04552:0000000000000013
#04958:00530000
#04955:00000053
#04952:0000000000000023
#0495b:0000002300000000
#0535b:0000000000000023
#05355:00630000
#05352:0000002300000000
#05358:00000063
#05252:0013
#0525b:00000013
#05456:00140000
#05452:00000014
#0545a:00000014
#05652:54
#05656:0024
#05556:0000000000000024
#05552:00000054
#00052:00000052
#000380:0000000000000000000000000000000000000000000000000000000000000000000000000000000000000000000000000000000000000000000000000000000012000052000000000000000000000000220000000000000000000000000000000000000000000000000000000000000000000000000000000000000000000000
#0003b0:0000000000000000000000000000000000000000000000000000000000000000000000000000000000000000000000000000000000000000000000000000000000520000000000000000000000000000000000000000000000000000000000000000000000000000000000000000000000000000000000000000000000000000
#000350:00000000000000000000000000000000000000000000000000000000000000000052000000000000000000000000000000000000000000000000000000000000
#000361:00000000000000000000000000000000000000000000000000000000000000000000000000000000125252522200000000000000000000000000000000000000
#000351:0000000000000000000000000000000000000000000000000000000000000000000000000000000000000000000000000000000000000000000000000000000000000000000000000000000000000000005200520052005200000000000000000000000000000000000000000000000000000000000000000000000000000000
#000380:00000000000000000000000000000000000000000000000000000000000000000000000000000000000000001252525222000000000000000000000000000000
#000390:0000000000000000000000000000000000000000000000000000000000000000000000000000000000000000000000000000000000000000000000000000000000000000000000000000000000000000000000000000000000520052005200520000000000000000000000000000000000000000000000000000000000000000
#000321:00000012
#001371:22
#0033b1:00001333
#003371:0000000000330023
#004361:13
#004321:0033230000000000
#0043a1:0014
#004381:00000000000000000000000000000000000000000000000000000000000000000054000000000000340000000000000000000000000000000000000000000000
#004361:00000000000000000000000000000000000000000000000000000000000000000000000000000000005400000000000034000000000000000000000000000000
#004341:00000000000000000000000000000000000000000000000000000000000000000000000000000000000000000000000000540000000000002400000000000000
#007321:00001333
#007361:0000000000330023
#008371:13
#0083b1:0033230000000000
#009321:00130000
#009361:0023
#0093b0:0013
#009370:00000023
#009321:00000013
#010361:23
#010361:0013
#010321:00000023
#011321:0000001300330033
#011361:00005353
#012361:00000053000000000000000000000000
#012321:0023
#011370:0000000000000013
#0123b0:00000053000000000000000000000000
#012370:0023
#012380:0000000000000012
#0133c0:0022000000000000
#0133c0:0012
#013370:00000022
#014370:12
#0143c0:0022
#014320:0000000000000013
#015360:0023000000000000
#015340:0000000012220000
#015361:00000000000000001252220000000000
#015381:0000000000000000000000000000000000520052000000000000000000000000
#015371:0000000000001222
#015390:00000000000000000000000012522200
#0153b0:0000000000000000000000000000000000000000000000000000005200000000
#0163a0:120000000000000000000000000000000000000000000000000000000000000000000000000000000000000000000000000000000000000000000000000000000000000000000000000000000000000000000000000000000000000000000000000000000000000000000000000000000000000000000000000000000000000000000000000000000000000000000000000000000000000000000000000000000000000000000000000000000000000000000000000000000000000000000000000000000000000000000000000000000000000000000000000000000000000000000000000000000000000000000000000000000000000000000000000000000000000000000000000000000000000000000000000000000000000000000000000000000000000000000052000000000000000000000000000000000000000000000000000000000000000000000000000000000000000000000000000000000000000000000000000000000000000000000000000000000000000000000000000000000000000000000000000000000000000000000000000000000000000000000000000000000000000000000000000000000000000000000000000000000000000000000000000000000000000000000000000000000000000000000000220000000000000000000000000000000000000000000000000000000000000000000000000000000000000000000000000000000000000000000000000000000000000000000000000000000000000000000000000000000000000000000000000000000000000000000000000000000000000000000000000000000000000000000000000000000000000000000000000000000000000000000000000000000000000000000000000000000000000000000000000000000000000000000000000000000000000000000000000000000000000000000000000000000000000000000000000000000000000000000000000000000000000000000000000000000000000000000000000000000000000000000000000000000000000000000000000000000000000000000000000000000000000000000000000000000000000000000000000000000000000000000000000000000000000000000000000000000000000000000000000000000000000000000000000000000000000000000000000000000000000000000000000000000000000000000000000000000000000000000000000000000000000000000000000000000000000000000000000000000000000000000000000000000000000000000000000000000000000000000000000000000000000000000000000000000000000000000000000000000000000000000000000000000000000000000000000000000000000000000000000000000000000000000000000000000000000000000000000000000000000000000000000000000000000000000000000000000000000000000000000000000000000000000000000000000000000000000000000000000000000000000000000000000000000000000000000000000000000000000000000000000000000000000000000000000000000000000000000000000000000000000000000000000000000000000000000000000000000000000000000000000000000000000000000000000000000000000000000000000000000000000000000000000000000000000000000000000000000000000000000000000000000000000000000000000000000000000000000000000000000000000000000000000000000000000000000000000000000000000000000000000000000000000000000000000000000000000000000000000000000000000000000000000000000000000000000000000000000000000000000000000000000000000000000000000000000000000000000000000000000000000000000000000000000000000000000000000000000000000000000000000000000000000000000000000000000000000000000000000000000000000000000000000000000000000000000000000000000000000000000000000000000000000000000000000000000000000000000000000000000000000000000000000000000000000000000000000000000000000000000000000000000000000000000000000000000000000000000000000000000000000000000000000000000000000000000000000000000000000000000000000000000000000000000000000000000000000000000000000000000000000000000000000000000000000000000000000000000000000000000000000000000000000000000000000000000000000000000000000000000000000000000000000000000000000000000000000000000000000000000000000000000000000000000000000000000000000000000000000000000000000000000000000000000000000000000000000000000000000000000000000000000000000000000000000000000000000000000000000000000000000000000000000000000000000000000000000000000000000000000000000000000000000000000000000000000000000000000000000000000000000000000000000000000000000000000000000000000000000000
#016380:0000000000540000000000000000000000000000000000000000000000000000
#016341:120000000000000000000000000000000000000000000000000000000000000000000000000000000000000000000000000000000000000000000000000000000000000000000000000000000000000000000000000000000000000000000000000000000000000000000000000000000000000000000000000000000000000000000000000000000000000000000000000000000000000000000000000000000000000000000000000000000000000000000000000000000000000000000000000000000000000000000000000000000000000000000000000000000000000000000000000000000000000000000000000000000000000000000000000000000000000000000000000000000000000000000000000000000000000000000000000000000000000000000052540000000000000000000000000000000000000000000000000000000000000000000000000000000000000000000000000000000000000000000000000000000000000000000000000000000000000000000000000000000000000000000000000000000000000000000000000000000000000000000000000000000000000000000000000000000000000000000000000000000000000000000000000000000000000000000000000000000000000000000000220000000000000000000000000000000000000000000000000000000000000000000000000000000000000000000000000000000000000000000000000000000000000000000000000000000000000000000000000000000000000000000000000000000000000000000000000000000000000000000000000000000000000000000000000000000000000000000000000000000000000000000000000000000000000000000000000000000000000000000000000000000000000000000000000000000000000000000000000000000000000000000000000000000000000000000000000000000000000000000000000000000000000000000000000000000000000000000000000000000000000000000000000000000000000000000000000000000000000000000000000000000000000000000000000000000000000000000000000000000000000000000000000000000000000000000000000000000000000000000000000000000000000000000000000000000000000000000000000000000000000000000000000000000000000000000000000000000000000000000000000000000000000000000000000000000000000000000000000000000000000000000000000000000000000000000000000000000000000000000000000000000000000000000000000000000000000000000000000000000000000000000000000000000000000000000000000000000000000000000000000000000000000000000000000000000000000000000000000000000000000000000000000000000000000000000000000000000000000000000000000000000000000000000000000000000000000000000000000000000000000000000000000000000000000000000000000000000000000000000000000000000000000000000000000000000000000000000000000000000000000000000000000000000000000000000000000000000000000000000000000000000000000000000000000000000000000000000000000000000000000000000000000000000000000000000000000000000000000000000000000000000000000000000000000000000000000000000000000000000000000000000000000000000000000000000000000000000000000000000000000000000000000000000000000000000000000000000000000000000000000000000000000000000000000000000000000000000000000000000000000000000000000000000000000000000000000000000000000000000000000000000000000000000000000000000000000000000000000000000000000000000000000000000000000000000000000000000000000000000000000000000000000000000000000000000000000000000000000000000000000000000000000000000000000000000000000000000000000000000000000000000000000000000000000000000000000000000000000000000000000000000000000000000000000000000000000000000000000000000000000000000000000000000000000000000000000000000000000000000000000000000000000000000000000000000000000000000000000000000000000000000000000000000000000000000000000000000000000000000000000000000000000000000000000000000000000000000000000000000000000000000000000000000000000000000000000000000000000000000000000000000000000000000000000000000000000000000000000000000000000000000000000000000000000000000000000000000000000000000000000000000000000000000000000000000000000000000000000000000000000000000000000000000000000000000000000000000000000000000000000000000000000000000000000000000000000000000000000000000000000000000000000000000000000000000000000000000000000000000000
#017361:13
#017321:0023000000000000
#0173b1:00130000
#017371:0000002300000000
#0183b1:13
#018371:0023000000000000
#018361:00130000
#018321:0000002300000000
#019321:12
#019381:00220000
#019360:12
#0193c0:00220000
#0193c0:0012
#019360:00000022
#019381:0012
#019321:00000022
#020321:12
#020381:00220000
#020360:12
#0203c0:00220000
#0203c0:00001222
#020380:0000000000520000
#0213b0:13
#021360:0033230000000000
#021321:00130000
#021371:0000003323000000
#022321:00130000
#022361:0000002300000000
#023361:13230000
#023321:0053000000000000
#024371:13230000
#0243b1:0053000000000000
#024371:00001323
#0243b1:0000000000530000
#0253c1:12220000
#025371:0052000000000000
#025370:00122200
#025320:0000005200000000
#0253c1:00001222
#025371:0000000000520000
#025370:00000012
#025320:0000000000000052
#026370:22
#0263c1:12
#026371:00220000
#026361:0000000000000012
#0273c1:0000002200000000
#027381:0000000012000022
#027321:00000000000000000000005200000000
#0283c1:1222
#028361:00520000
#028321:0000000000180052
#029321:23
#0293b1:0000001300230000
#029371:0053
#029371:0000000000000013
#0303b1:00530000000000000000000000000000
#030371:00230000
#031361:0014002400000000
#031321:00340000
#031321:00001323
#031361:0000000000330000
#032361:0014002400000000
#0323a1:00340000
#0323b1:00001323
#032371:0000000000330000
#033361:00001434
#033321:0000000000340024
#0333a0:00001434
#033360:0000000000340024
#034320:14000054240000000000000000000000
#034360:00543400000000000000000000000000
#0343a0:00000000000000001400005424000000
#034360:00000000000000000054340000000000
#035360:00133333
#035320:0000005300530053
#036360:23
#0363b1:13
#036381:0023000000000000
#036350:0013000000000000
#036320:00230000
#036371:00130000
#0363b1:0000002300000000
#036320:0000001300000000
#036360:0023
#0363b1:0013
#036371:0000000000230000
#036361:0000000000000014
#0373a1:54
#037361:0024000000000000
#036320:0000000000000013
#037360:53
#037320:0023000000000000
#037360:0000000000000014
#038320:54
#038360:0024000000000000
#0383b0:0000001300002300
#038370:00000000000000000053000000000000
#0393b0:13
#039370:0023000000000000
#039361:13
#039321:0023000000000000
#0393b1:00130000
#039371:0000002300000000
#039360:00130000
#039320:0000002300000000
#0393a0:00001424
#039360:0000000000340000
#040370:0013000000000000
#0403b0:00230000
#040321:00130000
#040361:0000002300000000
#040321:00001424
#040361:0000000000340000
#041351:0000000013333323
#041321:00000000000000000053000000530000
#041380:0000000013333323
#0413b0:00000000000000000000005300000000
#042360:14000054240000000000000000000000
#0423a0:00543400000000000000000000000000
#042360:00000000000000001400005424000000
#042320:00000000000000000054340000000000
#043370:00133333
#0433b0:0000005300530053
#044370:23
#044321:13332300
#044361:0053005300000000
#0443b0:0013000000000000
#044370:00230000
#0443b0:0000001300000000
#044370:0023
#048370:0013002300000000
#0483b0:00330000
#049380:00132300
#0493b0:0000005300000000
#049350:00000013
#049320:0000000000000053
#050350:23
#052360:0013002300000000
#052320:00330000
#053350:00132300
#053320:0000005300000000
#053380:00000013
#0533b0:0000000000000053
#054380:23
#055320:00000014
#055360:0000000000000054
#056320:34
#056360:0054
#057320:24
